<?xml version="1.0" standalone="no"?>
<!DOCTYPE svg PUBLIC "-//W3C//DTD SVG 1.1//EN" "http://www.w3.org/Graphics/SVG/1.1/DTD/svg11.dtd" >
<svg xmlns="http://www.w3.org/2000/svg" xmlns:xlink="http://www.w3.org/1999/xlink" version="1.1">
<metadata></metadata>
<defs>
<font id="bpg_paata_caps_blackregular" horiz-adv-x="500" >
<font-face units-per-em="1000" ascent="730" descent="-270" />
<missing-glyph horiz-adv-x="220" />
<glyph unicode=" "  horiz-adv-x="220" />
<glyph unicode="&#x09;" horiz-adv-x="220" />
<glyph unicode="&#xa0;" horiz-adv-x="220" />
<glyph unicode="!" horiz-adv-x="333" d="M176 176h-19l-43 395q-3 25 -3 39q0 30 16.5 48.5t39.5 18.5t39 -18.5t16 -54.5q-1 -2 -1 -8v-12q0 -10 -1 -13zM166 94q22 0 38 -15.5t16 -37.5q0 -23 -16 -38.5t-38 -15.5t-38 15.5t-16 38.5q0 22 16 37.5t38 15.5z" />
<glyph unicode="&#x22;" horiz-adv-x="408" d="M281 392l-37 202q-1 3 -1 12v12q0 31 14 45t36 14q21 0 35 -14t14 -38q0 -41 -9 -90l-28 -143h-24zM103 392l-27 145q-6 31 -8.5 51t-2.5 30q0 31 13 45t35 14q21 0 35.5 -14t14.5 -38q0 -10 -4 -32t-9 -57l-26 -144h-21z" />
<glyph unicode="#" d="M56 -13l46 222h-84v40h91l34 167h-125v39h134l45 222h40l-44 -222h164l48 222h40l-46 -222h83v-39h-90l-35 -167h125v-40h-133l-45 -222h-40l45 222h-166l-46 -222h-41zM150 249h166l35 167h-166z" />
<glyph unicode="$" d="M53 163h21q6 -67 42.5 -102.5t109.5 -42.5v285q-48 30 -81 55t-53.5 49.5t-29.5 50t-9 56.5q0 61 44 105t129 54v45h31v-45q40 -1 67 -9q7 -2 30.5 -10.5t63.5 -23.5v-146h-19q-6 78 -39.5 114t-102.5 42v-248q63 -44 101 -73.5t58.5 -53.5t27 -47t6.5 -54 q0 -33 -13 -63.5t-37.5 -54.5t-60.5 -39.5t-82 -19.5v-63h-31v63q-46 2 -85.5 10.5t-87.5 27.5v138zM226 413v227q-49 -6 -73 -31t-24 -63q0 -36 21.5 -67t75.5 -66zM257 18q115 24 115 122q0 16 -3.5 30t-15 30t-34.5 35.5t-62 46.5v-264z" />
<glyph unicode="%" horiz-adv-x="833" d="M178 677q33 0 58.5 -15t43.5 -40.5t27 -58t9 -66.5q0 -44 -11.5 -77.5t-31.5 -55.5t-46 -33t-56 -11t-55 14t-43 38.5t-28 58t-10 72.5q0 37 12 69t31.5 55.5t44 36.5t50.5 13h5zM652 329h10q25 0 49.5 -13t44 -35.5t31 -53.5t11.5 -66q0 -91 -39.5 -139.5t-99.5 -48.5 q-30 0 -55.5 13.5t-44.5 37.5t-30 58.5t-11 76.5q0 36 11.5 67.5t30.5 54t43 35.5t49 13zM176 650q-12 0 -23 -5.5t-20 -22t-14.5 -46t-5.5 -78.5q0 -75 14 -114.5t48 -39.5q30 0 47 38t17 113q0 78 -16.5 116.5t-46.5 38.5zM658 303q-29 0 -46 -36t-17 -120 q0 -76 17 -111.5t46 -35.5q26 0 44.5 36t18.5 114t-16.5 115.5t-46.5 37.5zM680 677l-483 -704h-43l482 704h44z" />
<glyph unicode="&#x26;" horiz-adv-x="778" d="M510 427h205v-19q-21 -2 -35 -4t-26.5 -12.5t-27 -32.5t-37.5 -63q-44 -77 -96 -144q43 -51 77 -71.5t69 -20.5q34 0 57.5 18.5t32.5 54.5l19 -14q-19 -69 -58.5 -101.5t-93.5 -32.5q-40 0 -81 22t-90 73q-59 -53 -109 -74t-104 -21q-41 0 -73.5 11.5t-55 31.5 t-34.5 46.5t-12 56.5t9.5 59t32.5 58.5t62 59.5t98 62q-23 51 -31.5 83.5t-8.5 62.5q0 36 13.5 66t36.5 51t54 32.5t67 11.5q29 0 53 -9t41.5 -25t27 -38t9.5 -47q0 -26 -8 -47.5t-26.5 -42t-49.5 -41.5t-77 -45q31 -55 63.5 -105.5t66.5 -96.5q86 104 86 173 q0 18 -11.5 35.5t-34.5 19.5v19zM324 414q120 58 120 147q0 35 -21.5 58t-53.5 23q-21 0 -37.5 -8.5t-27 -21t-16 -28t-5.5 -30.5q0 -23 8.5 -53t32.5 -87zM399 109q-34 46 -55 75t-35.5 52.5t-26 46t-27.5 55.5q-117 -68 -117 -162q0 -26 8.5 -50t24.5 -42t39 -29t52 -11 q16 0 30 2.5t29.5 9.5t34 20t43.5 33z" />
<glyph unicode="'" horiz-adv-x="180" d="M77 392l-26 145q-5 30 -8 50t-3 31q0 31 12.5 45t34.5 14t36.5 -14t14.5 -38q-3 -9 -5 -31.5t-8 -57.5l-26 -144h-22z" />
<glyph unicode="(" horiz-adv-x="333" d="M311 -196v-18q-66 33 -116 81t-84.5 107t-52 126.5t-17.5 139.5q0 75 19.5 145.5t55.5 130.5t85.5 106t109.5 73v-21q-47 -25 -80 -65.5t-54.5 -94.5t-31.5 -120t-10 -141q0 -46 3.5 -90t10 -82.5t15 -70.5t18.5 -55q18 -42 48 -79t81 -72z" />
<glyph unicode=")" horiz-adv-x="333" d="M22 674v21q66 -33 116 -81t84.5 -107t52 -126.5t17.5 -139.5q0 -75 -19.5 -145t-55 -130t-85.5 -106.5t-110 -73.5v18q92 52 134 162t42 260q0 45 -3.5 88.5t-10 82.5t-15 71.5t-18.5 55.5q-18 42 -48 79t-81 71z" />
<glyph unicode="*" d="M241 510q-1 20 -6 40.5t-10 39t-9.5 32.5t-4.5 21q0 25 12 38.5t29 13.5q16 0 27 -13.5t11 -37.5q0 -10 -4 -26.5t-9.5 -35.5t-10 -38t-5.5 -34q13 8 25.5 18.5t23.5 23.5q16 19 28 30.5t21 17.5t16.5 7.5t16.5 1.5q16 0 27 -11t11 -26q0 -9 -3 -17t-13 -15.5t-29 -14.5 t-52 -14q-19 -4 -34.5 -9t-27.5 -10q13 -7 28 -11.5t34 -8.5q30 -6 48.5 -13t29 -14.5t14 -16t3.5 -18.5q0 -15 -11 -25.5t-25 -10.5q-15 0 -33 10t-48 46q-10 11 -22 22.5t-28 22.5q1 -19 5.5 -41t10 -41.5t9.5 -35t4 -21.5q0 -20 -11.5 -33.5t-25.5 -13.5q-15 0 -29 10.5 t-14 36.5q0 11 3.5 26.5t8 30.5t9 27.5t5.5 17.5q2 6 3 15t2 22q-29 -20 -48 -38t-33 -32t-25 -22.5t-24 -8.5q-17 0 -28.5 11t-11.5 25q0 18 6.5 26t24.5 14.5t49 15t79 26.5q-35 18 -64 24.5t-50 12t-33 14t-12 31.5q0 14 11 25t25 11q17 0 35 -10.5t44 -41.5t55 -48z" />
<glyph unicode="+" horiz-adv-x="564" d="M261 69v244h-243v40h243v242h39v-242h244v-40h-244v-244h-39z" />
<glyph unicode="," horiz-adv-x="250" d="M54 -166v21q51 17 78 52t27 74q0 8 -3.5 14t-7.5 6q-3 0 -15.5 -7t-26.5 -7q-24 0 -38 14t-14 39q0 24 18 41t45 17q32 0 57 -28t25 -75q0 -51 -35 -93.5t-110 -67.5z" />
<glyph unicode="-" horiz-adv-x="333" d="M41 261h252v-73h-252v73z" />
<glyph unicode="." horiz-adv-x="250" d="M125 95q23 0 38.5 -16t15.5 -38q0 -23 -16 -38.5t-38 -15.5t-38 15.5t-16 38.5t16 38.5t38 15.5z" />
<glyph unicode="/" horiz-adv-x="278" d="M280 695l-239 -708h-40l240 708h39z" />
<glyph unicode="0" d="M36 327q0 77 17 141.5t46.5 110.5t68.5 71.5t84 25.5q43 0 82 -25.5t67.5 -71t45.5 -107.5t17 -134q0 -93 -20.5 -159t-52 -108t-70 -62t-74.5 -20q-43 0 -81.5 25.5t-67 71t-45.5 107.5t-17 134zM132 315q0 -61 7 -114.5t21 -94t36.5 -64t52.5 -23.5q56 0 88 80t32 260 q0 63 -7 115.5t-22 90t-37 58.5t-52 21q-32 0 -55 -26t-37 -71t-20.5 -105t-6.5 -127z" />
<glyph unicode="1" d="M117 597l161 79h16v-559q0 -31 0.5 -50t7.5 -30t24.5 -15t51.5 -4v-18h-249v18q24 1 38.5 3t23 5.5t12 8t5.5 10.5q6 12 6 72v357q0 43 -2 67.5t-6.5 37t-12 15.5t-18.5 3q-19 0 -50 -15z" />
<glyph unicode="2" d="M458 128l-46 -128h-391v18q87 80 147 143t97 114.5t53 95.5t16 86q0 31 -10.5 57t-28.5 45.5t-41.5 30.5t-49.5 11q-49 0 -88 -28.5t-57 -83.5h-18q12 91 62.5 139t125.5 48q40 0 74.5 -14t60 -38t40 -55.5t14.5 -66.5q0 -64 -37.5 -130t-103.5 -138 q-61 -67 -98.5 -106.5t-53.5 -53.5h173q33 0 55.5 1.5t38.5 7t27 16.5t21 29h18z" />
<glyph unicode="3" d="M51 536q28 67 71.5 103.5t107.5 36.5q34 0 62 -11t48.5 -29t32 -42.5t11.5 -51.5q0 -74 -91 -150q124 -49 124 -173q0 -50 -19 -92t-53 -73t-82.5 -48t-106.5 -17q-33 0 -55.5 4.5t-35.5 12t-18.5 17t-5.5 18.5q0 17 13 26t33 9q8 0 17 -3t38 -19q23 -13 37 -18t25 -5h17 q25 0 47.5 10.5t39.5 28.5t27 41.5t10 49.5q0 35 -12.5 66t-35.5 53.5t-56 35.5t-74 13h-15v15q36 4 64.5 19t47.5 36t29 46.5t10 51.5q0 51 -31 82t-79 31q-75 0 -126 -81z" />
<glyph unicode="4" d="M465 244v-69h-89v-175h-80v175h-280v63l307 438h53v-432h89zM296 244v329l-233 -329h233z" />
<glyph unicode="5" d="M434 662l-38 -83h-199l-44 -89q59 -9 108.5 -31t85.5 -55t56 -75t20 -91q0 -60 -25 -106.5t-63 -78t-84.5 -48t-88.5 -16.5q-60 0 -87 20t-27 44q0 14 11 24.5t28 10.5q13 0 22.5 -4t32.5 -20q37 -25 74 -25q28 0 54 11.5t46 32t32 47.5t12 57q0 43 -18.5 82t-55.5 68.5 t-91 47.5t-125 20l127 257h237z" />
<glyph unicode="6" d="M448 676v-18q-116 -11 -189.5 -86.5t-105.5 -201.5q70 48 141 48q33 0 63 -14.5t53.5 -40.5t37 -61.5t13.5 -78.5q0 -46 -16 -88.5t-44 -74.5t-66.5 -51.5t-83.5 -19.5q-51 0 -89.5 24.5t-65 63.5t-40 87t-13.5 96q0 91 35.5 169.5t101.5 141.5q65 61 126.5 82.5 t113.5 22.5h28zM145 334q-9 -66 -9 -106q0 -30 7.5 -67t23.5 -69.5t40.5 -54t57.5 -21.5q21 0 41 10t35.5 29.5t24.5 48t9 66.5q0 40 -8.5 77.5t-24.5 66t-40 45.5t-55 17q-18 0 -39.5 -8t-62.5 -34z" />
<glyph unicode="7" d="M101 662h355v-18l-221 -657h-55l198 596h-182q-33 0 -56 -6t-39 -16.5t-27.5 -26t-22.5 -34.5l-14 6z" />
<glyph unicode="8" d="M192 334q-41 33 -65 57.5t-37.5 45.5t-17.5 40t-4 41q0 32 13 61t37 50.5t57.5 34t74.5 12.5q39 0 72 -12t56.5 -32t36.5 -46t13 -53q0 -19 -5 -37t-20 -37.5t-41.5 -42t-69.5 -49.5q48 -37 77 -64.5t45.5 -51.5t22 -46.5t5.5 -47.5q0 -35 -14 -65.5t-39.5 -53t-60.5 -36 t-78 -13.5q-42 0 -76.5 13t-59.5 35.5t-39 52t-14 61.5q0 45 29.5 87t101.5 96zM269 386q30 27 48 47t27 37t11.5 33t2.5 35q0 52 -28 81t-79 29q-25 0 -45.5 -8t-35.5 -21t-23 -30.5t-8 -36.5q0 -26 13 -51.5t36 -48.5zM215 315q-42 -34 -61 -74.5t-19 -86.5q0 -63 34 -101 t88 -38t85.5 29.5t31.5 72.5q0 22 -9 43.5t-28.5 44.5t-49.5 50t-72 60z" />
<glyph unicode="9" d="M53 -13v18q64 1 118 29t106 100q51 71 71 157q-77 -50 -139 -50q-35 0 -66 14t-54 40t-36 62.5t-13 81.5q0 49 16 92t43.5 75.5t65 51t81.5 18.5q47 0 86 -23t66.5 -61t43 -87.5t15.5 -101.5q0 -72 -28 -146t-77.5 -134t-119 -98t-151.5 -38h-28zM355 327q9 63 9 101 q0 46 -10 85.5t-27.5 68.5t-41 45.5t-50.5 16.5q-21 0 -41 -9.5t-35 -29t-24 -48.5t-9 -68q0 -43 8.5 -80t24.5 -64.5t38.5 -43t50.5 -15.5q23 0 53.5 10.5t53.5 30.5z" />
<glyph unicode=":" horiz-adv-x="278" d="M141 427q23 0 38.5 -16t15.5 -38q0 -23 -15.5 -38.5t-38.5 -15.5q-22 0 -38 15.5t-16 38.5q0 22 16 38t38 16zM140 95q23 0 39 -16t16 -38q0 -23 -16 -38.5t-39 -15.5q-22 0 -38 15.5t-16 38.5q0 22 16 38t38 16z" />
<glyph unicode=";" horiz-adv-x="278" d="M138 425q22 0 38 -15.5t16 -38.5q0 -22 -16 -38t-38 -16q-23 0 -39 16t-16 38q0 23 16 38.5t39 15.5zM69 -166v21q51 17 78.5 52t27.5 74q0 7 -4 13.5t-7 6.5q-4 0 -16.5 -7t-25.5 -7q-24 0 -38.5 14t-14.5 39q0 24 18.5 41t44.5 17q33 0 58 -27.5t25 -75.5 q0 -51 -35 -93.5t-111 -67.5z" />
<glyph unicode="&#x3c;" horiz-adv-x="564" d="M18 345l525 228v-43l-452 -196l452 -199v-43l-525 229v24z" />
<glyph unicode="=" horiz-adv-x="564" d="M18 431h527v-40h-527v40zM18 272h527v-40h-527v40z" />
<glyph unicode="&#x3e;" horiz-adv-x="564" d="M543 319l-525 -227v42l453 196l-453 198v45l525 -230v-24z" />
<glyph unicode="?" horiz-adv-x="444" d="M222 156h-20q1 32 4 55.5t10 46.5t19 49t32 63q15 28 24 48.5t14 37t6.5 30.5t1.5 29q0 63 -32.5 99t-80.5 36q-43 0 -67.5 -20t-24.5 -43q0 -8 4.5 -20t10.5 -24.5t10.5 -23.5t4.5 -17q0 -17 -11.5 -29t-27.5 -12q-20 0 -37 20t-17 56q0 28 12.5 53.5t35.5 44.5 t55.5 30.5t72.5 11.5q43 0 77 -12t57.5 -32.5t36 -48.5t12.5 -60q0 -36 -16 -74t-60 -88q-36 -41 -56.5 -66.5t-31 -46t-14 -41.5t-4.5 -52zM215 96q23 0 39 -16t16 -39q0 -22 -16.5 -38t-38.5 -16q-23 0 -38.5 16t-15.5 38q0 23 15.5 39t38.5 16z" />
<glyph unicode="@" horiz-adv-x="921" d="M687 468l-57 -195q-17 -56 -26 -87.5t-13 -49.5t-5 -27t-1 -21q0 -16 10.5 -26.5t26.5 -10.5q25 0 60.5 20.5t68 61t55.5 102t23 142.5q0 60 -24 113.5t-65.5 93.5t-97 63t-119.5 23q-79 0 -156 -31t-138 -90.5t-98.5 -146.5t-37.5 -198q0 -93 31 -166t83.5 -122.5 t122 -75.5t146.5 -26q129 0 232 68.5t160 201.5h28q-22 -67 -63 -122t-96.5 -94.5t-123 -61.5t-140.5 -22q-86 0 -163 30.5t-135.5 87t-93 136.5t-34.5 179q0 96 35 183t96.5 152.5t146 104t184.5 38.5q75 0 138.5 -24t110.5 -68t73.5 -105.5t26.5 -137.5q0 -83 -25 -147.5 t-64.5 -108.5t-87.5 -66.5t-93 -22.5q-37 0 -55.5 18t-18.5 49q0 13 2 31t6 41q-37 -44 -65.5 -71.5t-51 -42.5t-41 -20t-34.5 -5q-36 0 -62 31t-26 83q0 28 10.5 64.5t28.5 74.5t43.5 74.5t55 65t63 46t68.5 17.5q68 0 84 -67l16 53zM516 448q-20 0 -42 -14.5t-44 -39 t-42 -55.5t-35.5 -65t-24.5 -68t-9 -63q0 -30 17.5 -49.5t38.5 -19.5q29 0 64 26.5t66 70t51.5 97.5t20.5 110q0 32 -17.5 51t-43.5 19z" />
<glyph unicode="A" horiz-adv-x="722" d="M458 222h-257l-45 -105q-16 -36 -16 -57q0 -15 14 -26.5t62 -15.5v-18h-208v18q25 5 40 12t26 20t20.5 33t22.5 50l233 544h17l230 -550q15 -35 26.5 -56t24 -32.5t27.5 -15.5t36 -5v-18h-261v18q39 2 53 13.5t14 27.5q0 23 -19 68zM444 258l-112 268l-116 -268h228z" />
<glyph unicode="B" horiz-adv-x="667" d="M462 338q81 -18 115.5 -60t34.5 -97q0 -49 -31 -94t-86 -66q-54 -21 -166 -21h-312v18h25q17 0 30 3t22 13.5t13.5 30t4.5 52.5v428q0 34 -5 54t-14 30t-22 12.5t-29 2.5h-25v18h286q141 0 210 -45.5t69 -130.5q0 -51 -30 -90t-90 -58zM206 364q36 -6 92 -6 q98 0 139.5 34.5t41.5 96.5q0 30 -12 55.5t-35 44.5t-58 30t-80 11q-42 0 -88 -11v-255zM206 48q49 -13 112 -13q43 0 77 10.5t57 29t35 43.5t12 55t-12 57.5t-37.5 48t-64.5 33t-93 12.5q-30 0 -51.5 -1t-34.5 -3v-272z" />
<glyph unicode="C" horiz-adv-x="667" d="M602 677l15 -225h-15q-30 102 -86.5 146t-134.5 44q-52 0 -95 -19.5t-74 -60.5t-48 -103.5t-17 -148.5q0 -66 18 -118.5t51 -88.5t78.5 -55.5t100.5 -19.5q32 0 60 6t54.5 21.5t52.5 42t55 67.5l15 -9q-49 -90 -115 -130.5t-159 -40.5q-72 0 -131.5 26t-102 72t-65.5 109 t-23 138q0 72 26 135t71 110t104.5 74.5t125.5 27.5q39 0 76.5 -8t75.5 -27q19 -10 29 -10q17 0 27 13t14 32h17z" />
<glyph unicode="D" horiz-adv-x="722" d="M17 0v18h25q18 0 31 3t21.5 13.5t13 30t4.5 52.5v428q0 35 -5 55t-14 29.5t-22 12t-29 2.5h-25v18h270q148 0 225 -34q39 -17 70.5 -46t54 -66.5t35 -83.5t12.5 -97q0 -73 -23.5 -134.5t-70.5 -106t-116.5 -69.5t-160.5 -25h-296zM206 48q32 -7 58 -10.5t46 -3.5 q56 0 104 20.5t83.5 59t55.5 93.5t20 123t-20 122.5t-55.5 93t-84.5 59t-107 20.5q-21 0 -46 -3.5t-54 -10.5v-563z" />
<glyph unicode="E" horiz-adv-x="611" d="M209 626v-262h145q31 0 51 5.5t31.5 17.5t16 30t5.5 44h19v-231h-19q-4 29 -8.5 48t-15 30.5t-29.5 16t-51 4.5h-145v-218q0 -24 0.5 -38.5t5.5 -22.5t16.5 -11t32.5 -3h112q43 0 72 7t49.5 22t36.5 40t34 61h20l-57 -166h-510v18h23q21 0 44 12q7 4 12 8.5t8.5 13.5 t5 24.5t1.5 40.5v430q0 36 -4.5 55.5t-13 29t-22 11t-31.5 1.5h-23v18h510v-145h-12q-7 36 -15 57.5t-21.5 33t-35.5 15t-56 3.5h-182z" />
<glyph unicode="F" horiz-adv-x="556" d="M205 626v-260h120q42 0 61 18.5t26 72.5h18v-224h-18q-2 28 -7 45t-14.5 27t-25.5 14t-40 6h-120v-208q0 -22 0.5 -36.5t3.5 -24t8 -15.5t14 -11q22 -12 45 -12h24v-18h-284v18h24q17 0 30.5 3t22.5 13t13.5 29.5t4.5 53.5v428q0 34 -5 53.5t-14.5 29.5t-22.5 13t-29 3 h-24v18h493v-145h-11q-12 34 -22 55t-25 32.5t-38.5 16t-61.5 5.5h-146z" />
<glyph unicode="G" horiz-adv-x="722" d="M614 677l17 -208h-17q-30 93 -85 133.5t-134 40.5q-58 0 -104 -23t-78 -63.5t-49 -95.5t-17 -119q0 -80 23 -141t59.5 -101.5t82 -61t90.5 -20.5q73 0 137 37v191q0 29 -2.5 48t-11.5 30t-26.5 15t-46.5 4v19h256v-19h-12q-17 0 -28.5 -3.5t-19 -14t-11 -29.5t-3.5 -50 v-202q-57 -31 -111.5 -45t-121.5 -14q-83 0 -150.5 25.5t-115.5 70.5t-74 106.5t-26 133.5q0 71 26 135.5t72.5 113.5t111 78t141.5 29q19 0 34.5 -1t32 -4.5t36 -9.5t46.5 -16q29 -11 37 -11q9 0 15.5 9t8.5 33h18z" />
<glyph unicode="H" horiz-adv-x="722" d="M206 355h307v190q0 31 -4 50.5t-13 30.5t-22.5 14.5t-31.5 3.5h-24v18h284v-18h-24q-18 0 -31.5 -3t-22 -13.5t-13 -30t-4.5 -52.5v-428q0 -22 0.5 -36.5t3.5 -24t8 -15.5t14 -11q22 -12 45 -12h24v-18h-284v18h24q16 0 29.5 2.5t22.5 12.5t14 29.5t5 54.5v202h-307v-202 q0 -22 0.5 -36.5t3.5 -24t8 -15.5t14 -11q21 -12 45 -12h24v-18h-284v18h24q17 0 30.5 3t22.5 13t13.5 29.5t4.5 53.5v428q0 34 -5 53.5t-14.5 29.5t-22.5 13t-29 3h-24v18h284v-18h-24q-18 0 -31.5 -3t-22 -13.5t-13 -30t-4.5 -52.5v-190z" />
<glyph unicode="I" horiz-adv-x="333" d="M309 18v-18h-284v18h23q17 0 30.5 2.5t22.5 12.5t14 29.5t5 54.5v428q0 33 -5 52.5t-14 30t-22.5 13.5t-30.5 3h-23v18h284v-18h-24q-17 0 -30.5 -2.5t-22.5 -12.5t-14 -30t-5 -54v-428q0 -33 5 -52.5t14.5 -30t22.5 -13.5t30 -3h24z" />
<glyph unicode="J" horiz-adv-x="389" d="M100 644v18h283v-18h-24q-17 0 -30 -2.5t-22 -12t-13.5 -29.5t-4.5 -55v-324q0 -45 -9 -87.5t-29 -75.5t-52.5 -53t-79.5 -20q-46 0 -72 23t-26 52q0 28 16 39.5t33 11.5q8 0 15 -2t14 -8.5t14.5 -19.5t16.5 -35q11 -26 29 -26q13 0 24.5 15.5t11.5 57.5v452 q0 34 -5 53.5t-14.5 29.5t-22.5 13t-29 3h-24z" />
<glyph unicode="K" horiz-adv-x="722" d="M299 367l244 -242q59 -59 102.5 -82t84.5 -25v-18h-314v18q28 0 40.5 9.5t12.5 21.5q0 6 -1 10.5t-4.5 10.5t-10.5 14t-19 21l-229 226v-214q0 -23 0.5 -37t3.5 -23.5t8.5 -15.5t14.5 -11q21 -12 44 -12h23v-18h-282v18h23q17 0 30.5 2.5t22.5 12.5t13.5 29.5t4.5 54.5 v428q0 42 -4 61t-22 27q-14 5 -25 7.5t-20 3.5h-23v18h282v-18h-23q-17 0 -30.5 -3t-22.5 -13.5t-13.5 -30t-4.5 -52.5v-202l67 62q54 49 90 83.5t58 59.5t31 41t9 27t-10 19.5t-34 8.5h-16v18h244v-18q-17 -1 -30.5 -3.5t-29.5 -10.5t-36 -22.5t-49 -39.5l-99 -100z" />
<glyph unicode="L" horiz-adv-x="611" d="M573 183l16 -3l-56 -180h-513v18h25q17 0 30 3t22 13t13.5 30t4.5 54v427q0 35 -5 55t-14 29.5t-22 12t-29 2.5h-25v18h300v-18h-11q-37 0 -57 -5.5t-29.5 -18.5t-11.5 -34t-2 -52v-416q0 -27 1.5 -42.5t11.5 -23t30.5 -9t58.5 -1.5h48q46 0 78 4t55.5 18.5t42 42.5 t38.5 76z" />
<glyph unicode="M" horiz-adv-x="889" d="M409 0l-256 557v-442q0 -34 5 -53.5t14 -29t22 -12t30 -2.5h23v-18h-230v18h23q18 0 31 3t21.5 12.5t13 29t4.5 52.5v433q0 24 -2 42t-11.5 30t-28 18t-51.5 6v18h187l240 -518l237 518h187v-18h-23q-18 0 -31 -3t-22 -13t-13.5 -29t-4.5 -51v-433q0 -34 5 -53.5t14 -29 t22 -12t30 -2.5h23v-18h-281v18h23q18 0 31.5 3t22 13t13 29.5t4.5 51.5v442l-256 -557h-16z" />
<glyph unicode="N" horiz-adv-x="722" d="M-13 662h180l404 -496v382q0 34 -4.5 53.5t-13.5 29t-22 11.5t-31 2h-22v18h230v-18h-23q-18 0 -31 -3t-22 -13t-13.5 -29t-4.5 -51v-559h-17l-437 534v-408q0 -35 5 -54.5t14 -29t22 -11.5t29 -2h24v-18h-231v18h23q18 0 31.5 3t22 13t13 29.5t4.5 51.5v460 q-16 19 -28 32t-25.5 21t-31.5 12t-45 4v18z" />
<glyph unicode="O" horiz-adv-x="722" d="M366 677q63 0 121 -26t101.5 -72t69.5 -108.5t26 -135.5q0 -74 -25.5 -138t-70 -111t-104 -74t-126.5 -27q-68 0 -127 25.5t-102.5 72t-68.5 110.5t-25 141q0 71 25 133.5t69 109t105 73.5t132 27zM356 642q-50 0 -89 -21.5t-65.5 -61.5t-40.5 -96.5t-14 -126.5 q0 -69 13.5 -127t40 -100t65.5 -65.5t91 -23.5q46 0 85.5 17.5t68 54.5t45 94t16.5 136q0 156 -53.5 238t-162.5 82z" />
<glyph unicode="P" horiz-adv-x="556" d="M205 310v-193q0 -35 5 -55t14 -29.5t22 -12t29 -2.5h25v-18h-283v18h25q16 0 29 2.5t22 12.5t13.5 29.5t4.5 54.5v428q0 36 -5 55.5t-14 29.5t-21.5 12t-28.5 2h-25v18h242q57 0 105.5 -10t83 -32t54 -57t19.5 -84q0 -82 -52.5 -132t-152.5 -50q-58 0 -111 13zM205 338 q25 -5 45 -7.5t35 -2.5q27 0 49.5 11t39.5 30.5t26.5 46t9.5 57.5t-10 58.5t-28 48t-42.5 32t-53.5 11.5q-14 0 -31 -2t-40 -7v-276z" />
<glyph unicode="Q" horiz-adv-x="722" d="M440 -7q50 -86 108 -126.5t132 -46.5v-16q-51 0 -107.5 15.5t-111 41.5t-104 60t-85.5 72q-116 46 -176.5 127.5t-60.5 212.5q0 74 26 137t71 109t104.5 72t127.5 26q64 0 122.5 -26t102 -72.5t69.5 -109.5t26 -138q0 -60 -17.5 -114.5t-50 -98.5t-77.5 -76.5t-99 -48.5z M358 640q-100 0 -155.5 -78t-55.5 -229q0 -70 13.5 -128t40.5 -99.5t66.5 -64.5t90.5 -23t90.5 20.5t67 59.5t42 94.5t14.5 126.5q0 79 -15.5 139t-44 100.5t-67.5 61t-87 20.5z" />
<glyph unicode="R" horiz-adv-x="667" d="M676 0h-177l-224 310q-7 -1 -12.5 -1h-10.5h-32q-13 0 -14 1v-193q0 -35 5 -55t14 -30t21.5 -12t28.5 -2h26v-18h-284v18h25q17 0 30 3t22 13t13.5 30t4.5 53v428q0 36 -5 56t-14 29.5t-22 11.5t-29 2h-25v18h241q106 0 156 -15q25 -8 47 -22.5t38 -34.5t25.5 -45 t9.5 -53q0 -61 -39 -106t-124 -63l136 -190q24 -33 42.5 -54t37.5 -33.5t40 -18.5t49 -9v-18zM206 341q9 0 16 -0.5t11 -0.5q96 0 143.5 41t47.5 105q0 63 -39 101t-103 38q-28 0 -76 -9v-275z" />
<glyph unicode="S" horiz-adv-x="556" d="M458 677v-229h-18q-11 94 -60.5 142t-122.5 48q-24 0 -45.5 -8.5t-37.5 -22.5t-25 -32.5t-9 -37.5q0 -18 7 -34t25.5 -33.5t50.5 -38t82 -47.5q57 -31 95 -55.5t60.5 -48t32 -50t9.5 -61.5q0 -43 -17 -77t-48 -58t-74 -36.5t-94 -12.5q-7 0 -14 0.5t-17 2.5t-24.5 6.5 t-36.5 12.5q-44 16 -60 16q-13 0 -20 -7.5t-10 -30.5h-18v227h18q9 -46 23.5 -81t38 -59t56.5 -36.5t79 -12.5q61 0 96.5 32t35.5 77q0 20 -5.5 36t-22 33.5t-48.5 38t-84 49.5q-55 30 -92 54.5t-59.5 48.5t-32.5 50.5t-10 60.5q0 35 15 66.5t41 55.5t61.5 38t76.5 14 q59 0 112 -25q27 -13 37 -13q13 0 22 7.5t13 30.5h18z" />
<glyph unicode="T" horiz-adv-x="611" d="M579 662v-155h-12q-7 63 -35.5 88.5t-85.5 25.5h-93v-506q0 -35 5 -54.5t14 -29t22 -11.5t29 -2h23v-18h-280v18h23q18 0 31 3t21.5 12.5t13 29t4.5 52.5v506h-79q-30 0 -53.5 -4.5t-40 -17.5t-26 -35t-11.5 -57h-19v155h549z" />
<glyph unicode="U" horiz-adv-x="722" d="M477 644v18h234v-18h-24q-16 0 -29 -3.5t-22.5 -14.5t-14.5 -31.5t-5 -53.5v-268q0 -60 -9 -112.5t-36.5 -91.5t-77.5 -61.5t-132 -22.5q-55 0 -95.5 9.5t-70 27.5t-48 43.5t-30.5 57.5q-15 43 -15 163v259q0 30 -4 49.5t-13 30.5t-22.5 15t-32.5 4h-25v18h287v-18h-26 q-17 0 -30.5 -3.5t-22.5 -14.5t-13.5 -30.5t-4.5 -50.5v-288q0 -43 5.5 -84.5t23.5 -73.5t52 -52t91 -20q66 0 116 28.5t70 71.5q19 39 19 150v268q0 35 -5 55t-14 29.5t-22 12t-29 2.5h-25z" />
<glyph unicode="V" horiz-adv-x="722" d="M710 662v-18q-41 -7 -61.5 -29.5t-37.5 -65.5l-231 -564h-18l-248 571q-12 27 -21 43.5t-20 26t-26 13t-38 5.5v18h270v-18q-46 -4 -59.5 -15.5t-13.5 -28.5q0 -22 23 -76l168 -389l156 384q23 57 23 78q0 20 -16 28.5t-54 18.5v18h204z" />
<glyph unicode="W" horiz-adv-x="944" d="M936 662v-18q-20 0 -33 -3.5t-24 -16t-21.5 -37.5t-24.5 -68l-185 -534h-20l-150 423l-150 -423h-18l-197 550q-13 36 -21.5 58t-18 33t-23 14.5t-37.5 3.5v18h245v-18h-11q-29 0 -41.5 -12.5t-12.5 -31.5q-1 -9 5.5 -27t16.5 -47l130 -372l110 316l-35 100 q-6 13 -12.5 26.5t-17 24t-25.5 17t-37 6.5v18h257v-18h-17q-53 0 -53 -49q-1 -12 5 -32t17 -49l127 -360l126 365q22 54 22 84q0 25 -22.5 33t-51.5 8v18h198z" />
<glyph unicode="X" horiz-adv-x="722" d="M408 367l142 -212q30 -45 50 -71.5t36.5 -40.5t33.5 -19t40 -6v-18h-284v18q41 2 53.5 13t12.5 31q0 4 -1 7.5t-4 9t-9.5 15.5t-17.5 27l-112 170l-139 -177q-11 -15 -17 -24t-9 -15t-3.5 -10t-0.5 -9q0 -16 13 -26t50 -12v-18h-235v18q22 3 41.5 10t39 19.5t39.5 32.5 t43 49l157 197l-131 191q-27 39 -48.5 63.5t-42 38t-40.5 19t-44 6.5v18h306v-18q-39 -1 -53.5 -12.5t-14.5 -24.5q0 -18 23 -53l102 -152l117 149q20 26 25 36t5 20q0 7 -2 13.5t-9 11.5t-21.5 8.5t-38.5 3.5v18h235v-18q-27 -2 -45.5 -8t-35 -18.5t-33.5 -32.5t-41 -50z " />
<glyph unicode="Y" horiz-adv-x="722" d="M477 662h231v-18h-13q-12 0 -26.5 -5t-31 -17.5t-34.5 -34t-39 -55.5l-160 -251v-166q0 -35 5 -54t14.5 -29t23 -12t30.5 -2h21v-18h-281v18h23q17 0 30.5 3t22.5 13t13.5 29t4.5 52v157l-182 277q-17 25 -26 38.5t-17 22t-18.5 14.5t-29.5 15q-17 5 -29 5v18h283v-18 h-14q-23 0 -42.5 -10.5t-19.5 -32.5q0 -17 30 -63l138 -214l130 205q29 46 29 68q0 21 -15 34t-51 13v18z" />
<glyph unicode="Z" horiz-adv-x="611" d="M575 662l-435 -622h272q31 0 54.5 6t41.5 22t32 42.5t27 67.5l16 -2l-31 -176h-539v18l424 605h-211q-40 0 -64 -6t-38 -21t-21 -39t-13 -60h-18l13 165h490z" />
<glyph unicode="[" horiz-adv-x="333" d="M297 -198h-215v875h215v-38h-142v-799h142v-38z" />
<glyph unicode="\" horiz-adv-x="278" d="M41 695l239 -708h-39l-240 708h40z" />
<glyph unicode="]" horiz-adv-x="333" d="M37 677h214v-875h-214v38h141v799h-141v38z" />
<glyph unicode="^" horiz-adv-x="469" d="M243 676l208 -350h-45l-171 286l-171 -286h-46l211 350h14z" />
<glyph unicode="_" d="M509 -216h-517v41h517v-41z" />
<glyph unicode="`" horiz-adv-x="333" d="M58 679h109l51 -169h-17z" />
<glyph unicode="a" horiz-adv-x="444" d="M285 65q-35 -28 -57 -43t-30 -19q-27 -12 -56 -12q-46 0 -76 31.5t-30 83.5q0 31 12 55t40.5 45.5t76.5 43t120 47.5v17q0 67 -21.5 92t-61.5 25q-31 0 -50 -17t-18 -38l1 -28q1 -23 -11.5 -35t-29.5 -12q-18 0 -29.5 12.5t-11.5 34.5q0 21 11.5 41.5t32.5 36t51 25.5 t68 10t66 -6t46.5 -23t27.5 -47t9 -78v-151q0 -39 1 -60t4 -30.5t7.5 -11t11.5 -1.5q10 0 20 8t33 31v-27q-56 -74 -105 -74q-24 0 -38 17t-14 57zM285 96v171q-51 -20 -83.5 -36t-51 -31.5t-25.5 -32.5t-7 -38q0 -35 21 -58t48 -23q36 0 98 48z" />
<glyph unicode="b" d="M154 370q64 91 140 91q34 0 65 -15.5t54.5 -44t37.5 -69t14 -91.5q0 -54 -18.5 -100t-50 -80.5t-73.5 -54t-88 -19.5q-76 0 -162 56v464q0 46 -2 71t-6 37t-10.5 14t-15.5 2q-8 0 -35 -8l-6 17l134 55h22v-325zM154 339v-267q50 -50 106 -50q22 0 43.5 12.5t38.5 37 t28 60t11 81.5q0 42 -10.5 75.5t-28 56t-40.5 34.5t-47 12t-45.5 -10t-55.5 -42z" />
<glyph unicode="c" horiz-adv-x="444" d="M411 170q-9 -44 -27.5 -78t-43 -57.5t-54.5 -35.5t-62 -12q-38 0 -72.5 16.5t-60.5 47t-41.5 74t-15.5 98.5q0 52 17 96t46 75.5t68 49t83 17.5q32 0 59.5 -10t47.5 -25.5t31.5 -35t11.5 -37.5t-11.5 -29.5t-33.5 -11.5q-23 0 -38 11.5t-17 45.5q-5 59 -67 59 q-29 0 -51 -13t-37 -35.5t-22.5 -52t-7.5 -62.5q0 -39 10 -75.5t29 -64.5t46 -45t61 -17q21 0 39.5 5t35.5 18t32.5 35t30.5 56z" />
<glyph unicode="d" d="M347 51q-33 -35 -64 -49.5t-67 -14.5t-69.5 16t-58.5 45t-40 69t-15 88t16 94t44.5 82t68.5 58t88 22q60 0 97 -37v82q0 46 -1.5 71.5t-5.5 37.5t-11 14t-17 2q-6 0 -33 -8l-7 17l134 55h22v-518q0 -47 1.5 -72.5t5.5 -37.5t10.5 -14t16.5 -2q6 0 35 8l5 -17l-132 -55 h-23v64zM347 85v230q-1 26 -10.5 47.5t-24.5 36.5t-32.5 23.5t-35.5 8.5q-25 0 -47 -13t-38.5 -37.5t-26 -59t-9.5 -77.5q0 -51 12 -89t31.5 -63.5t44 -38.5t50.5 -13q45 0 86 45z" />
<glyph unicode="e" horiz-adv-x="444" d="M106 279q0 -51 13.5 -90.5t36.5 -66.5t52.5 -41.5t61.5 -14.5q43 0 75.5 23.5t54.5 83.5l16 -10q-5 -33 -20 -64.5t-39 -56t-56 -40t-69 -15.5q-40 0 -75.5 16t-62 46t-42 72.5t-15.5 96.5q0 57 15.5 102.5t43.5 76.5t66 47.5t82 16.5q37 0 69 -13.5t54.5 -37.5 t35.5 -57.5t13 -73.5h-310zM106 307h207q-2 60 -28.5 90t-68.5 30q-40 0 -72 -31.5t-38 -88.5z" />
<glyph unicode="f" horiz-adv-x="333" d="M206 412v-294q0 -35 5 -54.5t13 -30t19.5 -13t24.5 -2.5h41v-18h-267v18h20q35 0 49 21t14 79v294h-86v36h86v38q0 46 13.5 84t38.5 65t59.5 42.5t75.5 16.5q18 0 39.5 -6.5t40 -17.5t31 -26t12.5 -33q0 -15 -13 -27.5t-27 -12.5q-12 0 -24 7.5t-31 34.5t-33 36t-34 9 q-22 0 -37 -11t-23 -38q-7 -20 -7 -129v-32h115v-36h-115z" />
<glyph unicode="g" d="M151 163q-42 20 -63.5 55.5t-21.5 80.5q0 33 13 62t37 51.5t56.5 35.5t71.5 13q64 0 111 -32h95q21 0 27 -3t6 -8q0 -2 -0.5 -5t-0.5 -5q0 -3 0.5 -6t0.5 -5q0 -5 -6 -8.5t-27 -3.5h-58q27 -35 27 -89q0 -31 -12.5 -58.5t-35.5 -48.5t-55.5 -33t-72.5 -12q-39 0 -68 10 q-22 -19 -29.5 -32.5t-7.5 -23.5q0 -8 3 -13.5t14 -9t32.5 -5.5t58.5 -3q51 -2 83.5 -3.5t46.5 -3.5q46 -7 73 -34t27 -67q0 -36 -21 -68t-56 -55.5t-80 -37.5t-93 -14q-33 0 -68 7t-63.5 19.5t-46.5 30t-18 37.5q0 11 2.5 20t11.5 22t27 32.5t48 51.5q-25 15 -35.5 27 t-10.5 27q0 9 3 18.5t11 21.5t23.5 28t40.5 37zM236 437q-36 0 -60.5 -28.5t-24.5 -88.5q0 -32 6.5 -60t18.5 -48.5t30.5 -32t42.5 -11.5q37 0 60.5 27.5t23.5 87.5q0 33 -6.5 61t-19 49t-30.5 32.5t-41 11.5zM146 0q-46 -49 -46 -86q0 -17 13.5 -30t36.5 -22t53.5 -14 t65.5 -5q45 0 77.5 9t53.5 23t30.5 31t9.5 34q0 14 -5.5 22.5t-20 14t-38.5 8t-61 4.5q-55 2 -97.5 4.5t-71.5 6.5z" />
<glyph unicode="h" d="M163 695v-328q28 31 48.5 49.5t37.5 28.5t31.5 13t31.5 3q29 0 50.5 -9.5t36 -33t21.5 -62t7 -96.5v-159q0 -23 1 -38.5t7.5 -25.5t20 -14.5t38.5 -4.5v-18h-220v18h10q22 0 34.5 4t18.5 13.5t7.5 25.5t1.5 40v159q0 45 -4 72.5t-12.5 43t-22.5 21t-33 5.5 q-24 0 -49.5 -13t-61.5 -51v-237q0 -26 1.5 -42t8.5 -25t21.5 -12.5t40.5 -3.5v-18h-222v18q30 0 47 9q10 5 16 18.5t6 55.5v405q0 46 -2 71.5t-6 37.5t-11 14t-17 2q-4 0 -33 -8l-7 17l134 55h23z" />
<glyph unicode="i" horiz-adv-x="278" d="M145 695q21 0 35 -14.5t14 -35.5q0 -20 -14 -35t-35 -15q-20 0 -35 15t-15 35q0 21 14.5 35.5t35.5 14.5zM186 461v-360q0 -26 2 -42t9 -25t20 -12.5t36 -3.5v-18h-217v18q19 0 32 1.5t21 9.5t11.5 25t3.5 47v173q0 42 -1.5 66t-5 36.5t-10.5 16t-18 3.5q-7 0 -33 -8 l-7 18l135 55h22z" />
<glyph unicode="j" horiz-adv-x="278" d="M145 695q21 0 35.5 -14.5t14.5 -35.5t-14.5 -35.5t-35.5 -14.5t-35.5 14.5t-14.5 35.5t14.5 35.5t35.5 14.5zM187 461v-451q0 -114 -49 -170t-127 -56q-45 0 -66.5 16.5t-21.5 33.5t12 29t28 12q6 0 11.5 -0.5t11.5 -3.5t14 -9t21 -18q24 -21 40 -21q11 0 19.5 4t14 17.5 t8.5 39.5t3 70v319q0 44 -1.5 69t-5.5 37t-11 14.5t-17 2.5q-7 0 -33 -8l-7 18l135 55h21z" />
<glyph unicode="k" d="M164 695v-446l113 104q16 15 25 23.5t13.5 14t6 9t1.5 7.5q0 10 -8 17t-26 8v16h194v-16q-20 0 -36.5 -3t-31 -9t-28.5 -16t-29 -24l-115 -106l115 -145l44 -55t26 -30.5t17 -14t18 -6.5q20 -5 43 -5v-18h-217v18q18 0 24.5 5.5t6.5 14.5q0 11 -19 36l-137 175v-148 q0 -25 1 -41t7.5 -25.5t21 -13t42.5 -3.5v-18h-228v18q22 0 37 3t23 11.5t11.5 24t3.5 41.5v408q0 46 -1.5 71.5t-6 37.5t-11.5 14t-17 2q-4 0 -30 -8l-9 17l133 55h23z" />
<glyph unicode="l" horiz-adv-x="278" d="M185 695v-594q0 -24 1.5 -40t8.5 -25.5t21.5 -13.5t40.5 -4v-18h-219v18q18 0 30.5 1.5t20.5 9.5t11.5 25t3.5 47v407q0 45 -1.5 70t-5.5 37t-10.5 14t-16.5 2q-6 0 -32 -8l-8 17l133 55h22z" />
<glyph unicode="m" horiz-adv-x="778" d="M164 365q30 30 49.5 48.5t35.5 29t32 14.5t38 4q42 0 72.5 -24t40.5 -72q25 30 45.5 48.5t39.5 29t36 14.5t35 4q25 0 46.5 -8.5t37.5 -28t25 -51.5t9 -79v-193q0 -23 1.5 -39t8 -26t20 -14t37.5 -4v-18h-220v18h9q18 0 30 2.5t19.5 11.5t10.5 25.5t3 43.5v193 q0 64 -19 86t-55 22q-26 0 -52 -13t-63 -48v-240q0 -26 1.5 -42t8.5 -25t21.5 -12.5t40.5 -3.5v-18h-226v18q25 0 40 3.5t22 12.5t9 25t2 42v193q0 62 -22 86t-54 24q-15 0 -32 -6t-33 -15.5t-29 -20.5t-21 -21v-240q0 -25 1.5 -41t8 -25.5t21.5 -13t42 -3.5v-18h-221v18 q18 0 31 1.5t21 10t11.5 25t3.5 46.5v171q0 44 -1.5 69t-5 37t-10.5 15t-18 3q-6 0 -32 -8l-8 18l135 55h21v-96z" />
<glyph unicode="n" d="M162 366q78 95 150 95q25 0 46 -8.5t36.5 -28t24 -52t8.5 -80.5v-191q0 -23 1.5 -39t8 -26t20.5 -14t39 -4v-18h-222v18h10q21 0 33.5 4t19 13.5t8.5 25.5t2 40v183q0 61 -16 89t-54 28q-58 0 -115 -64v-236q0 -27 2 -43.5t9 -25.5t21.5 -11.5t39.5 -2.5v-18h-221v18h10 q34 0 46 17t12 66v166q0 48 -1.5 74.5t-5.5 38.5t-11 14t-17 2q-7 0 -33 -8l-7 18l135 55h21v-95z" />
<glyph unicode="o" d="M250 461q47 0 86.5 -18t68 -49.5t44.5 -73t16 -88.5q0 -54 -17.5 -99t-47.5 -77.5t-70 -50.5t-85 -18q-47 0 -85.5 18.5t-66.5 50.5t-43.5 74t-15.5 89q0 57 19 101.5t49.5 76t69.5 48t78 16.5zM235 429q-20 0 -40 -8.5t-35.5 -28.5t-25 -52.5t-9.5 -79.5q0 -48 10 -91 t28 -76t44 -52.5t59 -19.5q48 0 78.5 39t30.5 135q0 48 -9.5 90.5t-27.5 74.5t-44 50.5t-59 18.5z" />
<glyph unicode="p" d="M-1 403l138 56h18v-105q35 60 70 83.5t73 23.5t69 -17.5t53 -47.5t34 -70.5t12 -85.5q0 -50 -14.5 -96t-41 -81t-64.5 -55.5t-84 -20.5q-32 0 -55.5 6.5t-51.5 32.5v-136q0 -26 1.5 -42.5t9 -26.5t23 -13.5t42.5 -3.5v-18h-234v18h12q17 0 29.5 2t20.5 10.5t11.5 26.5 t3.5 50v423q0 26 -1.5 41.5t-6 23.5t-12 10.5t-19.5 2.5q-17 0 -30 -7zM155 325v-167q0 -32 4 -58t15.5 -44.5t32 -29t53.5 -10.5q28 0 50.5 13.5t37.5 37.5t23 56.5t8 70.5q0 42 -8.5 78t-24 62t-37.5 41t-49 15q-12 0 -21 -1t-20 -7t-26 -19.5t-38 -37.5z" />
<glyph unicode="q" d="M427 461v-576q0 -24 1.5 -39.5t8.5 -25t22 -13t41 -3.5v-18h-226v18h10q13 0 24.5 0.5t20 7.5t13.5 24t5 49v193q-45 -53 -78 -72t-69 -19q-32 0 -62 15t-53.5 43.5t-37.5 68.5t-14 90q0 57 18.5 104.5t50 81.5t73 52.5t88.5 18.5q55 0 93 -32q29 14 55 32h16zM347 109 v219q0 46 -25.5 70.5t-73.5 28.5q-27 0 -51.5 -11.5t-42.5 -35t-28.5 -58.5t-10.5 -83q0 -90 39.5 -137t96.5 -47q29 0 51.5 12.5t44.5 41.5z" />
<glyph unicode="r" horiz-adv-x="333" d="M162 461v-101q56 101 115 101q27 0 44.5 -16.5t17.5 -38.5q0 -19 -12.5 -32t-30.5 -13q-8 0 -18 5.5t-20 11.5t-18.5 11.5t-12.5 5.5q-13 0 -30.5 -21t-34.5 -55v-214q0 -21 3 -37t11 -27.5t23.5 -17t40.5 -5.5v-18h-229v18q22 0 36 3.5t22 12.5t10.5 25t2.5 42v173 q0 45 -1.5 69.5t-5.5 36.5t-11.5 14t-18.5 2q-8 0 -34 -8l-5 18l136 55h20z" />
<glyph unicode="s" horiz-adv-x="389" d="M320 461v-153h-16q-18 72 -47 98t-74 26q-35 0 -56 -18t-21 -40q0 -14 3.5 -25.5t12 -22t23.5 -21t39 -21.5l71 -34q99 -48 99 -128q0 -31 -13 -56t-34 -42.5t-47.5 -27t-54.5 -9.5q-18 0 -41.5 3.5t-52.5 10.5q-25 5 -27 5q-11 0 -17 -13h-16v160h16q14 -69 52.5 -103.5 t86.5 -34.5q33 0 54.5 20t21.5 48q0 17 -5 30t-18.5 26t-36.5 26.5t-59 31.5t-58 33t-34.5 30.5t-17 32.5t-4.5 38q0 27 10 51t28 41.5t43 27.5t55 10q9 0 23 -3t29 -6.5t27.5 -6.5t17.5 -3q8 0 12 3.5t10 15.5h16z" />
<glyph unicode="t" horiz-adv-x="278" d="M161 594v-146h105v-35h-105v-290q0 -43 12.5 -58t32.5 -15q16 0 31 10t23 29h19q-17 -48 -48 -72t-64 -24q-17 2 -32.5 7t-27.5 17t-19 32t-7 52v312h-71v16q42 17 74.5 55t61.5 110h15z" />
<glyph unicode="u" d="M423 448v-271q0 -47 2 -72.5t6 -37.5t10.5 -14t16.5 -2q8 0 34 8l7 -17l-134 -55h-22v94q-30 -32 -51 -50.5t-37.5 -28.5t-31 -12.5t-32.5 -2.5q-60 0 -87 41.5t-27 132.5v200q-2 22 -4.5 35t-10 20t-22 9.5t-39.5 3.5v19h157v-300q0 -31 6 -50.5t16 -31t23.5 -15.5 t28.5 -4q21 0 47.5 13t63.5 50v254q0 38 -14 51t-58 14v19h152z" />
<glyph unicode="v" d="M8 448h211v-19h-14q-24 0 -31.5 -10.5t-7.5 -33.5q-1 -8 2 -13.5t8 -16.5l104 -247l105 256q6 14 8 24.5t3 17.5q0 11 -9.5 17t-41.5 6v19h146v-19q-30 -2 -42 -16t-24 -43l-159 -383h-20l-160 377q-13 34 -29 47.5t-49 17.5v19z" />
<glyph unicode="w" horiz-adv-x="722" d="M6 448h188v-19q-26 -2 -34 -9t-8 -21t8 -36l96 -258l96 210l-25 66q-5 12 -10 20.5t-12.5 13.5t-19 8.5t-29.5 5.5v19h213v-19q-29 -2 -44.5 -9t-15.5 -28q0 -13 4 -20l102 -257l94 248q10 28 10 42q0 9 -9.5 16t-37.5 8v19h141v-19q-44 -6 -63 -57l-149 -385h-20 l-112 285l-130 -285h-18l-144 376q-7 18 -13.5 29t-14.5 18.5t-18 11.5t-25 7v19z" />
<glyph unicode="x" d="M13 448h211v-19q-23 0 -30 -7.5t-7 -20.5q-1 -7 4.5 -14.5t13.5 -18.5l47 -75l37 51q17 24 25.5 39.5t9.5 21.5q0 10 -8 17t-27 7v19h151v-19q-14 -2 -25 -6t-23 -13t-26 -25t-33 -41l-61 -82l112 -160q21 -31 34.5 -47.5t24 -24.5t20.5 -9.5t25 -2.5v-18h-211v18 q18 0 30.5 7t12.5 21q0 10 -31 56l-65 96l-72 -96q-33 -44 -33 -52q0 -12 11 -21.5t33 -10.5v-18h-146v18q9 1 17.5 4t18.5 12t23.5 25t33.5 43l94 125l-85 123q-18 26 -31 41.5t-25 24t-23.5 11t-26.5 2.5v19z" />
<glyph unicode="y" d="M6 448h208v-19h-10q-26 0 -35 -11.5t-9 -27.5q0 -17 16 -46l109 -226l100 247q4 10 6.5 20t2.5 20q0 9 -7 16.5t-38 7.5v19h145v-19q-12 -2 -20.5 -4.5t-16 -9t-14.5 -19t-15 -34.5l-182 -446q-27 -66 -69.5 -99t-81.5 -33q-29 0 -47.5 17t-18.5 38t13.5 33.5t36.5 12.5 q5 0 15.5 -3t21.5 -6.5t20 -6.5t11 -3q15 0 32.5 15.5t34.5 58.5l32 78l-161 337q-13 26 -30 47t-49 27v19z" />
<glyph unicode="z" horiz-adv-x="444" d="M420 137v-137h-400v18l297 395h-147q-35 0 -54.5 -6.5t-29.5 -18t-13 -28t-4 -37.5h-19v125h378v-19l-300 -396h163q34 0 55 4t32.5 15t16.5 31.5t8 53.5h17z" />
<glyph unicode="{" horiz-adv-x="480" d="M411 -198v-18q-41 6 -75 24t-58 43.5t-37.5 56.5t-13.5 64q0 16 3.5 38t8 44t8 41.5t3.5 31.5q0 18 -8 35t-22.5 31t-35.5 24t-46 13v20q52 7 82 37t30 66q0 11 -3.5 30.5t-8 41.5t-8 43.5t-3.5 38.5q0 32 13.5 63.5t38 57.5t58 44t74.5 23v-18q-57 -13 -84 -44t-27 -68 q0 -14 3.5 -34t7.5 -42t7.5 -43.5t3.5 -37.5q0 -49 -36 -95.5t-108 -71.5q36 -13 63 -32t45 -41.5t27 -47.5t9 -49q0 -15 -3.5 -36.5t-7.5 -43.5t-7.5 -42.5t-3.5 -33.5q0 -37 27 -68t84 -45z" />
<glyph unicode="|" horiz-adv-x="200" d="M119 695v-911h-40v911h40z" />
<glyph unicode="}" horiz-adv-x="480" d="M86 677v18q40 -5 74 -22.5t58.5 -43.5t38 -57.5t13.5 -64.5q0 -17 -3.5 -38.5t-7.5 -43.5t-7.5 -41.5t-3.5 -30.5q0 -18 7.5 -35t22 -31t35 -24t46.5 -13v-20q-26 -3 -46.5 -13t-35 -24t-22 -31t-7.5 -35q0 -12 3.5 -31.5t7.5 -41.5t7.5 -44t3.5 -38q0 -33 -13.5 -64 t-37.5 -56.5t-58 -43.5t-75 -24v18q58 14 84.5 44.5t26.5 68.5q0 13 -3.5 33.5t-8 42.5t-8 43.5t-3.5 36.5q0 49 36.5 95.5t108.5 72.5q-70 25 -107.5 72.5t-37.5 96.5q0 16 3.5 37.5t8 44t8 42.5t3.5 33q0 37 -26.5 68t-84.5 44z" />
<glyph unicode="~" horiz-adv-x="541" d="M509 330h22q-1 -34 -11.5 -59t-27.5 -42t-40 -25.5t-48 -8.5q-12 0 -21 1t-26 6.5t-46.5 17.5t-81.5 34q-72 31 -107 31q-34 0 -57.5 -20.5t-33.5 -68.5h-21q3 66 36 100.5t78 34.5q31 0 72.5 -15.5t104.5 -41.5q42 -18 71.5 -26.5t45.5 -8.5q37 0 61.5 23t29.5 68z" />
<glyph unicode="&#xa4;" d="M388 498l70 69l28 -28l-70 -69q50 -65 50 -137q0 -73 -50 -138l70 -71l-28 -27l-70 70q-66 -51 -132 -51q-43 0 -84 15t-60 36l-71 -70l-28 27l70 71q-49 55 -49 137q0 77 49 138l-70 69l28 28l71 -69q25 22 64 36t75 14q34 0 71 -13t66 -37zM250 508q-36 0 -68.5 -14 t-56.5 -38t-38 -56t-14 -69q0 -36 14 -67.5t38 -55.5t56 -38t69 -14t69.5 14.5t56.5 39.5t37.5 58t13.5 70q0 32 -14.5 62.5t-38 54.5t-54 38.5t-62.5 14.5h-8z" />
<glyph unicode="&#xa6;" horiz-adv-x="200" d="M119 695v-363h-40v363h40zM119 147l-40 -363v363h40z" />
<glyph unicode="&#xa7;" d="M184 412q-33 36 -46.5 66t-13.5 60q0 28 11 53t29.5 44t43.5 30t54 11q26 0 49 -9t39.5 -23.5t26 -34t9.5 -40.5q0 -15 -9 -29.5t-30 -14.5q-16 0 -27 11t-11 26q0 5 3 19t3 28q0 20 -14 33.5t-39 13.5q-35 0 -60 -25t-25 -61q0 -21 5.5 -37t16.5 -30t27.5 -27.5 t37.5 -28.5q85 -62 122.5 -111t37.5 -100q0 -45 -25.5 -89.5t-82.5 -77.5q34 -38 47 -65.5t13 -58.5q0 -30 -11 -55.5t-29.5 -44.5t-44 -29.5t-54.5 -10.5q-26 0 -48 9t-38.5 24.5t-26 35.5t-9.5 41q0 18 11.5 30.5t26.5 12.5t25.5 -11.5t10.5 -31.5q0 -13 -3.5 -29 t-3.5 -24q0 -18 19 -28t39 -10q16 0 31.5 7.5t27.5 19t19.5 26t7.5 28.5q0 35 -23 66t-77 71q-41 30 -69.5 56t-46.5 50t-26 48t-8 50q0 45 26.5 89t81.5 77zM200 397q-74 -45 -74 -109q0 -28 9.5 -48t30.5 -41t54 -48t80 -68q75 45 75 107q0 15 -4.5 31t-16.5 34 t-33.5 39.5t-55.5 48.5q-20 16 -36 29.5t-29 24.5z" />
<glyph unicode="&#xa9;" horiz-adv-x="760" d="M380 677q64 0 126.5 -25t111.5 -70.5t79 -109.5t30 -141q0 -67 -26 -129.5t-72 -110.5t-109.5 -77t-139.5 -29q-67 0 -129.5 25.5t-110.5 71.5t-77 109.5t-29 139.5q0 69 26.5 131.5t73 110t109.5 76t137 28.5zM380 648q-57 0 -113.5 -22.5t-101.5 -63.5t-73 -100 t-28 -131q0 -62 24 -119.5t66 -101t100 -69.5t126 -26q63 0 120 24.5t100.5 67t69.5 100.5t26 124q0 61 -24 118.5t-66 101.5t-100 70.5t-126 26.5zM551 554l10 -137h-19q-18 58 -56 86.5t-92 28.5q-72 0 -114.5 -49t-42.5 -140q0 -104 44.5 -153t117.5 -49q95 0 152 79 l18 -9q-68 -99 -187 -99q-48 0 -89.5 17t-72 46t-47.5 68.5t-17 84.5q0 49 19 90.5t52.5 71.5t80 47t100.5 17q14 0 24 -1t28 -7l30 -10q7 -4 18 -4q8 0 13 4t11 18h19z" />
<glyph unicode="&#xab;" d="M248 -4h-28l-189 231l189 229h28l-119 -229zM469 -4h-29l-192 231l192 229h29l-119 -229z" />
<glyph unicode="&#xac;" horiz-adv-x="564" d="M18 429h527v-198h-39v158h-488v40z" />
<glyph unicode="&#xad;" horiz-adv-x="333" d="M41 261h252v-73h-252v73z" />
<glyph unicode="&#xae;" horiz-adv-x="760" d="M380 677q64 0 126.5 -25t111.5 -70.5t79 -109.5t30 -141q0 -67 -26 -129.5t-72 -110.5t-109.5 -77t-139.5 -29q-67 0 -129.5 25.5t-110.5 71.5t-77 109.5t-29 139.5q0 69 26.5 131.5t73 110t109.5 76t137 28.5zM380 648q-57 0 -113.5 -22.5t-101.5 -63.5t-73 -100 t-28 -131q0 -62 24 -119.5t66 -101t100 -69.5t126 -26q63 0 120 24.5t100.5 67t69.5 100.5t26 124q0 61 -24 118.5t-66 101.5t-100 70.5t-126 26.5zM188 544h189q72 0 108.5 -32t36.5 -77q0 -37 -25 -65t-83 -44l102 -145q15 -22 26 -31.5t33 -11.5v-16h-90l-144 198h-37 v-151q3 -16 14 -23.5t44 -7.5v-16h-179v16q17 0 27 2t15 9t6.5 20t1.5 36v256q0 21 -0.5 33.5t-5 20t-13.5 10t-26 2.5v17zM304 341q77 0 108 24t31 64t-27.5 67t-70.5 27q-12 0 -41 -8v-174z" />
<glyph unicode="&#xaf;" d="M509 714h-517v41h517v-41z" />
<glyph unicode="&#xb0;" horiz-adv-x="400" d="M198 677q31 0 58.5 -12t47.5 -32.5t32 -48t12 -57.5q0 -31 -12 -58t-32.5 -47.5t-47.5 -32.5t-58 -12t-58 12t-47.5 32.5t-32.5 47.5t-12 58t11.5 58.5t32 47.5t47.5 32t59 12zM198 636q-23 0 -43 -8.5t-34.5 -23t-23 -34.5t-8.5 -43t8.5 -42.5t23 -34.5t34.5 -23.5 t43 -8.5q22 0 42 8.5t35 23.5t23.5 34.5t8.5 42.5t-8.5 43t-23.5 34.5t-35 23t-42 8.5z" />
<glyph unicode="&#xb1;" horiz-adv-x="549" d="M4 69v40h243v204h-243v40h243v242h39v-242h244v-40h-244v-204h245v-40h-527z" />
<glyph unicode="&#xb4;" horiz-adv-x="333" d="M276 679l-144 -169h-17l52 169h109z" />
<glyph unicode="&#xb6;" horiz-adv-x="453" d="M390 635v-851h-36v851h-91v-851h-35v510q-64 3 -108.5 15.5t-72.5 35.5t-41 56t-13 78q0 91 60.5 137t159.5 46h242v-27h-65z" />
<glyph unicode="&#xb7;" horiz-adv-x="250" d="M125 385q23 0 38.5 -15.5t15.5 -38.5q0 -22 -16 -38t-38 -16t-38 16t-16 38q0 23 16 38.5t38 15.5z" />
<glyph unicode="&#xba;" horiz-adv-x="310" d="M158 676q30 0 56 -11t44.5 -30t29 -45.5t10.5 -56.5t-12 -57t-32 -47.5t-46.5 -32t-55.5 -11.5t-54.5 10.5t-44 29.5t-29 44.5t-10.5 55.5q0 34 10.5 62t30 47.5t45.5 30.5t58 11zM145 655q-26 0 -44 -22t-18 -70q0 -28 5 -55.5t15.5 -49.5t26.5 -35.5t37 -13.5 q27 0 45.5 21.5t18.5 69.5q0 28 -6 56t-17 50t-27 35.5t-36 13.5z" />
<glyph unicode="&#xbb;" d="M252 456h28l189 -230l-189 -230h-28l119 230zM31 456h29l192 -230l-192 -230h-29l119 230z" />
<glyph unicode="&#x2da;" horiz-adv-x="376" d="M134 625q0 -10 4.5 -20t13 -18.5t19.5 -13.5t23 -5h9q24 0 41.5 18t17.5 38q0 21 -19 37.5t-44 16.5q-26 0 -45.5 -15.5t-19.5 -37.5zM97 625q0 19 8 36t21.5 30t32 21t39.5 8q20 0 38.5 -8t32.5 -21t22 -30.5t8 -36.5q0 -20 -8 -38t-22 -31.5t-32 -21.5t-38 -8 q-23 0 -41.5 8t-32 21.5t-21 32t-7.5 38.5z" />
<glyph unicode="&#x2dc;" horiz-adv-x="333" d="M26 536h-15q2 67 27.5 96.5t64.5 29.5q22 0 42 -8.5t56 -32.5q40 -27 60 -27q16 0 28 13.5t19 54.5h15q0 -64 -28 -96t-65 -32q-39 0 -96 39q-30 20 -41.5 25t-20.5 5t-15.5 -1.5t-11.5 -8t-9.5 -20t-9.5 -37.5z" />
<glyph unicode="&#x10a0;" horiz-adv-x="552" d="M502 169q0 -41 -11.5 -77.5t-38 -63.5t-69 -42.5t-105.5 -15.5q-115 0 -171.5 49t-56.5 140v36q0 111 107 189l44 -36q-29 -53 -29 -136v-38q0 -34 5.5 -65.5t18 -55.5t32.5 -39t50 -16q60 2 82.5 45t22.5 118v65q0 150 -108 240q-51 42 -76 79t-25 73v35h120v-15 q-9 -24 -9 -47q0 -78 98 -141q119 -105 119 -214v-67z" />
<glyph unicode="&#x10a1;" horiz-adv-x="552" d="M170 163q0 -90 29.5 -126.5t76.5 -36.5q57 0 82 36.5t25 121.5v98q0 49 -8 81t-22 51t-33.5 26.5t-43.5 7.5q-23 0 -42 -8t-33.5 -26.5t-22.5 -50.5t-8 -80v-94zM283 663q0 -23 8 -42.5t17.5 -37.5t17.5 -35.5t8 -38.5q0 -20 -11 -59q31 0 63 -14t58 -40t42 -63t16 -83 v-90q0 -38 -17 -72.5t-47.5 -60.5t-72 -41.5t-89.5 -15.5q-51 0 -92.5 15.5t-71.5 42t-46 61t-16 73.5v88q0 46 17.5 83t46 63t64.5 40t72 14q9 27 9 47q0 47 -43 62q-62 23 -63 104h130z" />
<glyph unicode="&#x10a2;" horiz-adv-x="589" d="M419 228q0 40 -8.5 75.5t-24.5 62t-39.5 42t-53.5 15.5q-35 0 -58.5 -15.5t-37.5 -42.5t-20 -62.5t-6 -74.5v-49q0 -36 7.5 -68.5t23 -57t38.5 -39t54 -14.5q37 0 61.5 16t38.5 41.5t19.5 57t5.5 63.5v50zM539 172q0 -97 -60.5 -149.5t-190.5 -52.5q-59 1 -103.5 18 t-74.5 44.5t-45 64t-15 75.5v59q0 42 14 80.5t43.5 68.5t74 49t105.5 21q58 36 58 88q0 58 -14 77t-44 19q-48 0 -61 -19.5t-13 -55.5l7 -38l-104 -15l-10 43q0 57 48.5 85.5t130.5 28.5q37 0 69 -6.5t54.5 -20t35.5 -35.5t13 -52q0 -65 -110 -103q37 -2 72 -18t61.5 -43.5 t42.5 -66t16 -86.5v-60z" />
<glyph unicode="&#x10a3;" horiz-adv-x="830" d="M626 -25h-185q-96 0 -168.5 31.5t-121.5 85t-74.5 124t-26.5 149.5l1 66q2 115 55 173.5t165 58.5q68 0 113 -66q49 66 182 66q46 0 85.5 -11t68 -35.5t44.5 -65t16 -98.5v-109q0 -55 -16.5 -95t-45.5 -66t-68 -38.5t-84 -12.5q-109 0 -167.5 55t-58.5 161v102 q0 53 22 112q-47 72 -98 72q-21 0 -38 -9t-29 -32t-19 -62t-7 -100v-27q0 -91 15.5 -162.5t47 -120.5t79 -75t111.5 -26q88 0 167 55h35v-100zM662 453q0 55 -6 90t-18 55.5t-30 28t-42 7.5q-29 0 -49 -7.5t-32.5 -28t-18 -55.5t-5.5 -89v-105q0 -33 1.5 -66t11.5 -59.5 t31.5 -42.5t60.5 -16q33 0 52.5 15t29 39.5t12 55t2.5 60.5v118z" />
<glyph unicode="&#x10a4;" horiz-adv-x="562" d="M502 143q0 -50 -16.5 -82.5t-46 -52.5t-71 -28.5t-92.5 -9.5q-109 1 -167.5 48t-58.5 128q0 93 104 159l40 -30q-24 -38 -24 -130q0 -82 27.5 -114t78.5 -32q48 0 80 29.5t32 89.5v406q0 54 -24.5 82t-69.5 28q-51 0 -75.5 -28t-24.5 -79q0 -57 28 -97l-69 -35 q-69 70 -69 130q0 36 17 62t45.5 43t65.5 25t76 8q106 0 160 -40t54 -128v-352z" />
<glyph unicode="&#x10a5;" horiz-adv-x="552" d="M502 119q0 -35 -17 -62.5t-47 -46.5t-71.5 -29.5t-90.5 -10.5q-45 0 -86 11.5t-72 32.5t-49.5 51.5t-18.5 69.5v27q0 83 85 144l50 -30q-14 -33 -14 -104v-50q0 -24 7.5 -46.5t21 -39t33 -26.5t43.5 -10q55 0 81 32.5t26 86.5v82q0 147 -63 147l-85 -10v61l88 -10 q55 1 55 124v20q0 15 -5.5 32.5t-17 32.5t-29.5 25.5t-43 10.5q-24 0 -42.5 -8.5t-31 -22.5t-18.5 -32.5t-6 -37.5v-15q0 -46 15 -68l-66 -36q-52 45 -52 101v23q0 27 14.5 50t41 39.5t63 26t80.5 9.5q51 0 90.5 -12.5t66 -33t40.5 -46.5t14 -53v-13q0 -67 -108 -131v-9 q118 -34 118 -164v-82z" />
<glyph unicode="&#x10a6;" horiz-adv-x="582" d="M381 537q0 -23 -8.5 -41.5t-22 -32.5t-30.5 -23t-33 -12q57 0 102 -15t77 -40.5t49 -59.5t17 -73v-69q0 -49 -17.5 -86.5t-47.5 -63t-71 -38.5t-88 -13q-49 0 -90.5 13.5t-72 39t-47.5 63t-17 85.5v66q0 31 11 59t28.5 50.5t40.5 39.5t47 26h-20q-28 0 -55.5 9t-49 25 t-35 37.5t-13.5 47.5v15q0 24 12 45.5t34.5 37t54 25t70.5 9.5q85 0 130 -34.5t45 -85.5v-6zM202 182q0 -38 5.5 -71t18 -57.5t33.5 -39t52 -14.5q33 0 53.5 14.5t31.5 39.5t15 59t4 74v34q0 88 -25.5 134.5t-76.5 46.5q-33 0 -54.5 -12t-34 -34.5t-17.5 -54.5t-5 -72v-47z M269 546q0 42 -13 64.5t-49 22.5q-21 0 -33.5 -6.5t-18.5 -18.5t-8 -28.5t-2 -35.5v-28q0 -37 12.5 -60.5t56.5 -23.5q22 0 33.5 6.5t16 17.5t5 26.5t0.5 33.5v30z" />
<glyph unicode="&#x10a7;" horiz-adv-x="811" d="M361 495q0 72 -29 105.5t-69 33.5q-26 0 -44 -8t-28.5 -29t-15 -56.5t-4.5 -90.5v-244q0 -41 5 -78.5t15.5 -66t27.5 -45t41 -16.5q31 0 50.5 15.5t31 44t15.5 67.5t4 86v282zM760 261q-1 -91 -35.5 -162.5t-106.5 -128.5h-83q54 54 79.5 124.5t26.5 161.5l1 185 q1 105 -19 149t-54 44q-19 0 -35 -10t-28 -26.5t-18.5 -38t-6.5 -43.5v-301q0 -59 -16.5 -104.5t-45.5 -76t-69.5 -47t-89.5 -17.5q-100 1 -155 63t-55 177v224q0 115 54.5 172t160.5 57q130 0 180 -87q37 87 129 87q85 0 135.5 -55t51.5 -158z" />
<glyph unicode="&#x10a8;" horiz-adv-x="551" d="M501 274q0 -211 -119 -304h-69q68 95 68 278v156q0 66 -8 110.5t-22 71t-33.5 37.5t-41.5 11q-26 0 -45.5 -11t-33 -37.5t-20.5 -70.5t-7 -111v-155q0 -187 68 -279h-69q-119 93 -119 304v134q0 73 16 122t46 78.5t71.5 42t92.5 12.5q55 0 96.5 -13t69.5 -43t43 -80 t16 -123v-130z" />
<glyph unicode="&#x10a9;" horiz-adv-x="543" d="M493 144q0 -41 -17 -72.5t-47 -54t-71.5 -34.5t-90.5 -13q-48 1 -89.5 13t-72 32.5t-48 49t-17.5 63.5v18q0 84 91 160l46 -34q-16 -49 -16 -124v-22q0 -22 7.5 -44.5t21 -40.5t33 -29.5t44.5 -11.5q51 0 79 36t28 108v52q0 42 -7 72t-19 49t-27 28t-31 9l-81 -9v66 l77 -10q28 0 50.5 22.5t22.5 74.5v32q0 43 -24.5 64t-69.5 21v48q96 0 152.5 -36.5t56.5 -96.5v-17q0 -82 -129 -131l-1 -11q149 -48 149 -175v-52z" />
<glyph unicode="&#x10aa;" horiz-adv-x="1005" d="M955 431q0 -126 -118 -265l-43 34q38 122 38 238v36q0 78 -15.5 120t-61.5 42q-45 0 -64.5 -35.5t-19.5 -113.5v-195h-90v195q0 86 -21 119t-59 33q-41 0 -60.5 -33t-19.5 -116v-198h-89v199q0 78 -21.5 110.5t-58.5 32.5q-26 0 -40.5 -11t-22 -33t-9.5 -55.5t-2 -78.5 v-44q0 -233 105 -312q107 -80 245 -80q130 5 184 50h57v-95h-237q-111 0 -200 26.5t-152 77t-96.5 125t-33.5 170.5v90q0 50 15 87.5t41 62.5t61 37.5t75 12.5q91 0 138 -75q32 80 120 80q85 0 126 -78q49 73 141 73q40 0 74 -13.5t59.5 -38t40 -58.5t14.5 -75v-48z" />
<glyph unicode="&#x10ab;" horiz-adv-x="562" d="M388 285q0 28 -7 53t-21.5 44t-35.5 29.5t-48 10.5q-49 0 -77.5 -40.5t-28.5 -109.5v-112q0 -42 8.5 -72.5t23.5 -50t34 -28.5t40 -9q45 0 78.5 37t33.5 113v135zM502 168q0 -104 -60.5 -151t-165.5 -47q-45 1 -86 13t-72 36.5t-49.5 62t-18.5 88.5v84q0 48 18 84.5 t49 61t72.5 37.5t88.5 13q68 0 110 -51v115q0 36 -9 59.5t-24 37t-33.5 18.5t-37.5 5q-48 0 -72.5 -27t-24.5 -62v-37h-114v37q0 25 15 46.5t43 37.5t66.5 25t85.5 9q46 0 86 -7.5t69.5 -26t46.5 -51.5t17 -84v-326z" />
<glyph unicode="&#x10ac;" horiz-adv-x="562" d="M393 279q0 30 -9 56t-23.5 45.5t-34 30.5t-40.5 11q-55 0 -83 -39t-28 -105v-135q0 -73 31 -108t79 -35q33 0 54 12t33 32.5t16.5 47t4.5 56.5v131zM512 151q0 -44 -17 -77.5t-47 -56.5t-72 -35t-91 -12q-44 0 -85 11t-72 33.5t-49.5 56.5t-18.5 81v347q0 46 10 77.5 t28.5 51t45.5 27.5t61 8q25 0 46 -3.5t39.5 -8t35.5 -8t34 -3.5q59 0 124 27l1 -50q-39 -58 -102 -58q-24 0 -44 9.5t-37.5 21.5t-34 21.5t-34.5 9.5q-14 0 -24.5 -3t-18 -12t-11.5 -25t-4 -41l1 -132q49 42 109 42q115 0 171 -49.5t56 -130.5v-119z" />
<glyph unicode="&#x10ad;" horiz-adv-x="822" d="M651 403q0 69 -8 113.5t-21.5 70.5t-33 36.5t-41.5 10.5q-37 0 -61 -33t-24 -113v-271h-100v271q0 79 -21.5 112.5t-64.5 33.5q-22 0 -41 -10t-33.5 -36.5t-22.5 -71t-8 -113.5v-120q0 -203 148 -308h-97q-172 103 -172 321v115q0 69 18 117t47.5 78t66.5 43.5t75 13.5 q115 0 157 -92q29 92 154 92q46 0 83.5 -14.5t64.5 -45t41.5 -78.5t14.5 -114v-114q0 -218 -179 -322h-93q151 105 151 308v120z" />
<glyph unicode="&#x10ae;" horiz-adv-x="552" d="M502 150q0 -34 -15 -66.5t-43.5 -57.5t-70.5 -40.5t-96 -15.5q-43 0 -83.5 11.5t-72.5 34.5t-51.5 58t-19.5 82v41q0 68 68 128l67 -30q-14 -40 -14 -88v-56q0 -28 5 -55t17 -48.5t32.5 -35t51.5 -13.5q34 0 55 14t32 36.5t15 50.5t4 56v59q0 55 -7.5 88.5t-20.5 51.5 t-30 24t-36 6h-73v50h73q13 0 29 4t29 13.5t22 24.5t9 37q0 63 -113 74q-112 10 -112 76h140q0 -41 97 -60q98 -20 98 -78q0 -83 -136 -111v-5q150 -56 150 -193v-67z" />
<glyph unicode="&#x10af;" horiz-adv-x="562" d="M502 141q0 -31 -13.5 -61.5t-41.5 -55t-70.5 -39.5t-99.5 -15q-63 0 -106 13t-70 36t-38.5 53t-11.5 65q0 74 84 137l54 -29q-18 -56 -18 -104q0 -26 4.5 -51t16.5 -45t32.5 -32.5t52.5 -12.5q40 0 62 14.5t33 36.5t13.5 47.5t2.5 47.5v481l-185 -23v-11 q69 -17 101.5 -47.5t32.5 -78.5q0 -124 -266 -124v83q60 -20 90 -20q63 0 63 64q0 59 -26.5 85.5t-94.5 26.5h-16h-7.5t-8.5 -1v45l431 46v-531z" />
<glyph unicode="&#x10b0;" horiz-adv-x="863" d="M813 231q0 -158 -176 -256h-107q163 90 163 256v60q0 81 -29.5 120.5t-75.5 39.5q-107 0 -107 -149v-147h-99v147q0 149 -106 149q-20 0 -38.5 -7t-33.5 -25t-24 -49t-9 -79v-60q0 -166 170 -256h-108q-182 89 -182 256v60q0 88 39 157.5t112.5 117t179 72.5t239.5 25 l-1 -90q-39 3 -81 3q-51 0 -102 -4t-108 -12q-156 -23 -193 -138q56 59 140 59q97 0 156 -95q62 95 156 95q51 0 92.5 -13t71 -37t45.5 -59.5t16 -80.5v-60z" />
<glyph unicode="&#x10b1;" horiz-adv-x="561" d="M510 169q0 -94 -58 -146.5t-167 -52.5q-106 0 -165.5 50.5t-59.5 156.5v485l115 -15v-470q0 -85 28 -132t82 -47q25 0 45.5 13t34 36.5t21 54.5t7.5 67v19q0 68 -43 123q-42 54 -42 105q0 41 25 87l77 -18q-28 -43 -28 -72q0 -22 16.5 -45t47.5 -46q64 -48 64 -134v-19z " />
<glyph unicode="&#x10b2;" horiz-adv-x="676" d="M507 387q0 72 -11.5 119t-31 74.5t-44.5 38t-52 10.5l19 -382h-102l18 382q-24 -1 -48 -11.5t-43 -37.5t-30.5 -73.5t-11.5 -119.5v-171q0 -48 12 -88t33.5 -68.5t52.5 -44t70 -15.5q40 0 71.5 15.5t53.5 44t33 68.5t11 88v171zM626 236q0 -56 -21 -104.5t-59 -84.5 t-91 -56.5t-117 -20.5q-65 0 -118 20t-91 56t-58.5 84.5t-20.5 105.5v151q0 58 21.5 106.5t56 83.5t78 54.5t87.5 19.5v22h86l-1 -22q43 0 87.5 -20t80 -55t58 -83.5t22.5 -105.5v-151z" />
<glyph unicode="&#x10b3;" horiz-adv-x="599" d="M547 158q0 -39 -11.5 -73.5t-37 -60t-66.5 -40t-99 -14.5q-50 0 -93 11.5t-74.5 34t-50 55t-18.5 74.5v25q0 103 109 161l32 -33q-20 -32 -20 -108v-47q0 -67 27.5 -105t87.5 -38q32 0 51.5 11t29.5 32t13 50.5t3 66.5v418q0 8 -4 17.5t-10.5 18t-15.5 14t-19 5.5 q-18 0 -28 -6t-15 -16t-6.5 -22.5t-1.5 -24.5v-151h-92v151q0 12 -0.5 24t-4 22t-13 16.5t-27.5 6.5t-29.5 -10t-20.5 -22.5t-19.5 -22.5t-26.5 -10q-22 0 -47 12v82q24 -15 49 -15q6 0 11.5 0.5t10.5 1.5l20 5q10 2 20.5 5t25.5 3q66 0 98 -66q40 66 115 66q27 0 53.5 -3.5 t47.5 -17t34 -39.5t14 -71z" />
<glyph unicode="&#x10b4;" horiz-adv-x="822" d="M361 474q0 47 -6 78t-18.5 49t-31 25t-42.5 7q-48 0 -70.5 -34.5t-22.5 -119.5v-79q0 -81 20 -123.5t75 -42.5q51 0 73.5 42.5t22.5 123.5v74zM745 130q0 -42 -20 -72t-55.5 -49.5t-85 -29t-108.5 -9.5q-65 0 -115.5 8t-85 29t-52.5 56.5t-18 91.5h126q0 -45 9 -75 t27.5 -47.5t47.5 -25t68 -7.5q34 0 60.5 11.5t45 30t28 42t9.5 46.5v42q0 18 -5.5 35t-15.5 30.5t-25 21.5t-33 8h-31v45h41q22 0 38.5 11t27 28.5t15.5 39.5t5 45v53q0 66 -19.5 102t-57.5 36q-17 0 -33 -9.5t-29 -24.5t-21 -34.5t-8 -40.5l1 -119q-1 -94 -56 -145 t-155 -51q-103 0 -159 51.5t-56 145.5v74q0 101 56.5 145t160.5 44q148 0 186 -86q28 79 129 79q37 0 70 -13t57.5 -36t38.5 -54t14 -67v-35q0 -114 -151 -157v-10q134 -38 134 -136v-18z" />
<glyph unicode="&#x10b5;" horiz-adv-x="561" d="M501 120q0 -28 -14 -55t-42.5 -48t-71 -34t-99.5 -13q-47 0 -88 12.5t-71 33.5t-47.5 49t-17.5 60v9q0 72 54 116h87q-19 -41 -19 -118v-12q0 -25 8 -47t21.5 -38t32 -25.5t40.5 -9.5q37 0 60 10.5t35 27t16 37t4 41.5v356q-68 65 -125 65q-27 0 -48 -25t-21 -62 q0 -42 22 -82h-89q-45 42 -45 82q0 28 14 49.5t37.5 36.5t54.5 22.5t65 7.5q85 0 135 -47v110l-87 -19v44h199v-534z" />
<glyph unicode="&#x10b6;" horiz-adv-x="799" d="M749 431q0 -116 -108 -231l-51 29q40 90 40 177v49q0 46 -3 80t-11.5 56t-24 32.5t-40.5 10.5q-24 0 -43 -5t-32 -20t-20 -42.5t-7 -71.5v-172h-99v172q-1 44 -8 71.5t-20 42.5t-31 20t-40 5q-35 0 -55.5 -47t-20.5 -158v-51q0 -84 16 -150.5t49.5 -112.5t86 -70.5 t124.5 -24.5q47 0 123 46h46v-91h-168q-101 0 -176.5 33t-125.5 88.5t-75 128t-25 151.5v52q0 52 12.5 95.5t37.5 74.5t62.5 48t87.5 17q104 0 149 -77q45 77 149 77q58 0 97 -13t62 -38.5t32.5 -64t9.5 -89.5v-27z" />
<glyph unicode="&#x10b7;" horiz-adv-x="562" d="M502 142q0 -81 -52 -126.5t-173 -45.5q-56 0 -98.5 10.5t-71 29.5t-42.5 44t-14 54q0 70 55 125l72 -25q-4 -35 -5.5 -60.5t-1.5 -42.5q0 -19 8 -37.5t22 -33.5t33.5 -24.5t42.5 -9.5q41 0 63.5 11.5t33 31.5t12.5 47.5t2 60.5v169q-52 -46 -120 -46q-40 0 -76.5 10 t-64 32.5t-44 57t-16.5 84.5v21q0 48 22.5 96.5t70.5 99.5l84 -18q-58 -100 -58 -177v-35q0 -78 22.5 -108.5t64.5 -30.5q19 0 39 8.5t37 22.5t28 32.5t11 38.5v238l114 16v-520z" />
<glyph unicode="&#x10b8;" horiz-adv-x="566" d="M506 181q0 -211 -226 -211q-51 0 -93 17.5t-72 46.5t-46 65.5t-16 75.5v73q0 39 15.5 75.5t45 64.5t71 45t93.5 17q77 0 114 -52v185q0 25 -10 38t-38 13q-23 0 -32 -19t-9 -70v-35h-82v35q0 49 -8.5 69t-36.5 20q-25 0 -32.5 -15.5t-7.5 -49.5v-51h-101v51q0 22 10 39.5 t28 29.5t42 18.5t52 6.5q53 0 93 -46q41 47 91 47q48 0 78 -11t47.5 -31t23.5 -48.5t6 -64.5v-328zM392 276q0 69 -28 107.5t-82 38.5q-33 0 -54 -18t-33 -45.5t-16 -60.5t-4 -62v-59q0 -27 4.5 -58.5t16.5 -57.5t32 -43.5t52 -17.5q33 0 55 17.5t34.5 43.5t17.5 54.5 t5 51.5v109z" />
<glyph unicode="&#x10b9;" horiz-adv-x="562" d="M293 495q7 25 7 64q0 40 -15 57.5t-44 17.5q-63 0 -63 -88v-129q48 33 107 33q56 0 98.5 -15.5t71 -42t43 -62.5t14.5 -77v-34q0 -135 -103 -247h-91q75 93 75 222v74q0 24 -6 51t-18.5 50t-33 38t-50.5 15q-18 0 -37 -6t-34.5 -18t-25.5 -29.5t-10 -40.5v-353h-118v526 q0 45 9.5 75.5t30.5 50t55 28t82 8.5q31 0 61 -6.5t53 -18.5t37 -29t14 -38q0 -56 -91 -92z" />
<glyph unicode="&#x10ba;" horiz-adv-x="603" d="M553 172q0 -40 -17 -76.5t-49.5 -64.5t-78 -44.5t-102.5 -16.5q-63 0 -111 21.5t-80.5 55.5t-48.5 77t-16 87v183q0 172 99 267h62q-41 -105 -41 -267v-183q0 -33 8 -70.5t24.5 -68.5t42 -51.5t60.5 -20.5q28 0 52 16t41 40.5t26.5 55t9.5 60.5v35q0 57 -26.5 94 t-78.5 37l-70 -10v66l70 -9q45 0 65.5 25.5t20.5 67.5q0 65 -57 97q-57 31 -57 88h87q0 -65 72 -96q74 -32 74 -87q0 -79 -148 -113v-12q167 -29 167 -146v-37z" />
<glyph unicode="&#x10bb;" horiz-adv-x="561" d="M387 281q0 28 -8 53.5t-23 44.5t-35.5 30.5t-44.5 11.5q-20 0 -39 -10.5t-34 -31t-24 -50t-9 -67.5v-107q0 -36 8.5 -65.5t23 -49.5t34 -31t41.5 -11q28 0 49 15.5t34.5 39t20 51.5t6.5 54v123zM501 155q0 -33 -13.5 -66t-41.5 -59.5t-70 -43t-99 -16.5q-60 0 -103 16.5 t-70.5 43.5t-40.5 61.5t-13 71.5v104q0 90 57 136.5t153 46.5q81 0 127 -52v249l114 16v-508z" />
<glyph unicode="&#x10bc;" horiz-adv-x="567" d="M60 509q0 36 6.5 64.5t24 49t47.5 31t78 10.5q50 0 91 -47q23 25 46 35.5t50 10.5q57 0 93 -26t36 -68v-51h-101v51q0 34 -7 49.5t-33 15.5q-28 0 -36.5 -20t-8.5 -69v-35h-82v35q0 51 -9 70t-34 19q-27 0 -35 -23t-8 -66l-1 -136q38 41 121 41q46 0 85.5 -17t68 -45.5 t44.5 -65t16 -74.5v-73q0 -38 -16 -74.5t-45 -65.5t-71 -47t-93 -18q-112 0 -169.5 52.5t-57.5 158.5v328zM177 167q0 -23 3.5 -51.5t15 -54.5t33.5 -43.5t58 -17.5q31 0 51.5 17.5t32.5 44t17 57.5t5 58v59q0 30 -4.5 63t-16.5 60.5t-33 45t-54 17.5q-48 0 -78 -43 t-30 -131v-81z" />
<glyph unicode="&#x10bd;" horiz-adv-x="552" d="M272 522h-48q-36 0 -36 -52q0 -57 37 -57h58zM388 377q0 -23 57 -81q57 -59 57 -152q0 -83 -52.5 -128.5t-171.5 -45.5q-112 0 -169.5 44t-57.5 132q0 76 110 145l31 -21q-21 -80 -21 -128q0 -20 5.5 -44.5t18.5 -46.5t33 -37t50 -16q57 2 81 38.5t24 99.5q0 104 -49 166 q-48 61 -48 75h-60q-133 0 -133 93q0 85 133 85h46v78l-71 -17v33l177 14v-108h78v-33h-78l7 -109h71v-36h-68z" />
<glyph unicode="&#x10be;" horiz-adv-x="561" d="M60 663l114 -16v-249q46 52 127 52q96 0 153 -46.5t57 -136.5v-104q0 -37 -13 -71.5t-40.5 -61.5t-70.5 -43.5t-103 -16.5q-57 0 -99.5 16.5t-70 43t-41 59.5t-13.5 66v508zM174 158q0 -27 6.5 -55t20 -51.5t34 -38.5t49.5 -15q22 0 41.5 11t34 31t23 49.5t8.5 65.5v107 q0 37 -9 66.5t-24 50t-34 31.5t-39 11q-24 0 -44.5 -11.5t-35.5 -30.5t-23 -44.5t-8 -53.5v-123z" />
<glyph unicode="&#x10bf;" horiz-adv-x="551" d="M69 557h165l-10 96l109 18l-22 -114h168v-55h-163q0 -54 92 -140q93 -86 93 -169v-38q0 -41 -15.5 -75t-44.5 -58.5t-71 -38t-94 -13.5q-47 0 -88 15t-71.5 40t-48.5 57.5t-18 67.5v50q0 82 119 144l46 -27q-45 -41 -45 -121v-41q0 -81 27.5 -119t78.5 -38q34 0 55 11 t32.5 31.5t15 48.5t3.5 62v45q0 73 -72 165q-72 93 -72 141h-169v55z" />
<glyph unicode="&#x10c0;" horiz-adv-x="541" d="M491 131q0 -75 -59 -118t-165 -43q-112 0 -169.5 50.5t-57.5 153.5h120q0 -34 6 -65.5t18.5 -55.5t33 -38.5t49.5 -14.5q60 0 82.5 32.5t22.5 89.5q0 135 -109 135l-92 -4v56l92 -9q93 0 93 67q0 73 -108 73l-83 -4v58l83 -9q103 0 103 65q0 33 -16 52.5t-51 19.5 q-39 0 -140 -26v75q104 -4 166.5 -12.5t95.5 -22t43.5 -33t10.5 -44.5q0 -57 -91 -91v-11q106 -22 106 -89q0 -57 -101 -89v-10q117 -33 117 -138z" />
<glyph unicode="&#x10d0;" horiz-adv-x="552" d="M502 169q0 -41 -11.5 -77.5t-38 -63.5t-69 -42.5t-105.5 -15.5q-115 0 -171.5 49t-56.5 140v36q0 111 107 189l44 -36q-29 -53 -29 -136v-38q0 -34 5.5 -65.5t18 -55.5t32.5 -39t50 -16q60 2 82.5 45t22.5 118v65q0 150 -108 240q-51 42 -76 79t-25 73v35h120v-15 q-9 -24 -9 -47q0 -78 98 -141q119 -105 119 -214v-67z" />
<glyph unicode="&#x10d1;" horiz-adv-x="552" d="M170 163q0 -90 29.5 -126.5t76.5 -36.5q57 0 82 36.5t25 121.5v98q0 49 -8 81t-22 51t-33.5 26.5t-43.5 7.5q-23 0 -42 -8t-33.5 -26.5t-22.5 -50.5t-8 -80v-94zM283 663q0 -23 8 -42.5t17.5 -37.5t17.5 -35.5t8 -38.5q0 -20 -11 -59q31 0 63 -14t58 -40t42 -63t16 -83 v-90q0 -38 -17 -72.5t-47.5 -60.5t-72 -41.5t-89.5 -15.5q-51 0 -92.5 15.5t-71.5 42t-46 61t-16 73.5v88q0 46 17.5 83t46 63t64.5 40t72 14q9 27 9 47q0 47 -43 62q-62 23 -63 104h130z" />
<glyph unicode="&#x10d2;" horiz-adv-x="589" d="M419 228q0 40 -8.5 75.5t-24.5 62t-39.5 42t-53.5 15.5q-35 0 -58.5 -15.5t-37.5 -42.5t-20 -62.5t-6 -74.5v-49q0 -36 7.5 -68.5t23 -57t38.5 -39t54 -14.5q37 0 61.5 16t38.5 41.5t19.5 57t5.5 63.5v50zM539 172q0 -97 -60.5 -149.5t-190.5 -52.5q-59 1 -103.5 18 t-74.5 44.5t-45 64t-15 75.5v59q0 42 14 80.5t43.5 68.5t74 49t105.5 21q58 36 58 88q0 58 -14 77t-44 19q-48 0 -61 -19.5t-13 -55.5l7 -38l-104 -15l-10 43q0 57 48.5 85.5t130.5 28.5q37 0 69 -6.5t54.5 -20t35.5 -35.5t13 -52q0 -65 -110 -103q37 -2 72 -18t61.5 -43.5 t42.5 -66t16 -86.5v-60z" />
<glyph unicode="&#x10d3;" horiz-adv-x="830" d="M626 -25h-185q-96 0 -168.5 31.5t-121.5 85t-74.5 124t-26.5 149.5l1 66q2 115 55 173.5t165 58.5q68 0 113 -66q49 66 182 66q46 0 85.5 -11t68 -35.5t44.5 -65t16 -98.5v-109q0 -55 -16.5 -95t-45.5 -66t-68 -38.5t-84 -12.5q-109 0 -167.5 55t-58.5 161v102 q0 53 22 112q-47 72 -98 72q-21 0 -38 -9t-29 -32t-19 -62t-7 -100v-27q0 -91 15.5 -162.5t47 -120.5t79 -75t111.5 -26q88 0 167 55h35v-100zM662 453q0 55 -6 90t-18 55.5t-30 28t-42 7.5q-29 0 -49 -7.5t-32.5 -28t-18 -55.5t-5.5 -89v-105q0 -33 1.5 -66t11.5 -59.5 t31.5 -42.5t60.5 -16q33 0 52.5 15t29 39.5t12 55t2.5 60.5v118z" />
<glyph unicode="&#x10d4;" horiz-adv-x="562" d="M502 143q0 -50 -16.5 -82.5t-46 -52.5t-71 -28.5t-92.5 -9.5q-109 1 -167.5 48t-58.5 128q0 93 104 159l40 -30q-24 -38 -24 -130q0 -82 27.5 -114t78.5 -32q48 0 80 29.5t32 89.5v406q0 54 -24.5 82t-69.5 28q-51 0 -75.5 -28t-24.5 -79q0 -57 28 -97l-69 -35 q-69 70 -69 130q0 36 17 62t45.5 43t65.5 25t76 8q106 0 160 -40t54 -128v-352z" />
<glyph unicode="&#x10d5;" horiz-adv-x="552" d="M502 119q0 -35 -17 -62.5t-47 -46.5t-71.5 -29.5t-90.5 -10.5q-45 0 -86 11.5t-72 32.5t-49.5 51.5t-18.5 69.5v27q0 83 85 144l50 -30q-14 -33 -14 -104v-50q0 -24 7.5 -46.5t21 -39t33 -26.5t43.5 -10q55 0 81 32.5t26 86.5v82q0 147 -63 147l-85 -10v61l88 -10 q55 1 55 124v20q0 15 -5.5 32.5t-17 32.5t-29.5 25.5t-43 10.5q-24 0 -42.5 -8.5t-31 -22.5t-18.5 -32.5t-6 -37.5v-15q0 -46 15 -68l-66 -36q-52 45 -52 101v23q0 27 14.5 50t41 39.5t63 26t80.5 9.5q51 0 90.5 -12.5t66 -33t40.5 -46.5t14 -53v-13q0 -67 -108 -131v-9 q118 -34 118 -164v-82z" />
<glyph unicode="&#x10d6;" horiz-adv-x="582" d="M381 537q0 -23 -8.5 -41.5t-22 -32.5t-30.5 -23t-33 -12q57 0 102 -15t77 -40.5t49 -59.5t17 -73v-69q0 -49 -17.5 -86.5t-47.5 -63t-71 -38.5t-88 -13q-49 0 -90.5 13.5t-72 39t-47.5 63t-17 85.5v66q0 31 11 59t28.5 50.5t40.5 39.5t47 26h-20q-28 0 -55.5 9t-49 25 t-35 37.5t-13.5 47.5v15q0 24 12 45.5t34.5 37t54 25t70.5 9.5q85 0 130 -34.5t45 -85.5v-6zM202 182q0 -38 5.5 -71t18 -57.5t33.5 -39t52 -14.5q33 0 53.5 14.5t31.5 39.5t15 59t4 74v34q0 88 -25.5 134.5t-76.5 46.5q-33 0 -54.5 -12t-34 -34.5t-17.5 -54.5t-5 -72v-47z M269 546q0 42 -13 64.5t-49 22.5q-21 0 -33.5 -6.5t-18.5 -18.5t-8 -28.5t-2 -35.5v-28q0 -37 12.5 -60.5t56.5 -23.5q22 0 33.5 6.5t16 17.5t5 26.5t0.5 33.5v30z" />
<glyph unicode="&#x10d7;" horiz-adv-x="811" d="M361 495q0 72 -29 105.5t-69 33.5q-26 0 -44 -8t-28.5 -29t-15 -56.5t-4.5 -90.5v-244q0 -41 5 -78.5t15.5 -66t27.5 -45t41 -16.5q31 0 50.5 15.5t31 44t15.5 67.5t4 86v282zM760 261q-1 -91 -35.5 -162.5t-106.5 -128.5h-83q54 54 79.5 124.5t26.5 161.5l1 185 q1 105 -19 149t-54 44q-19 0 -35 -10t-28 -26.5t-18.5 -38t-6.5 -43.5v-301q0 -59 -16.5 -104.5t-45.5 -76t-69.5 -47t-89.5 -17.5q-100 1 -155 63t-55 177v224q0 115 54.5 172t160.5 57q130 0 180 -87q37 87 129 87q85 0 135.5 -55t51.5 -158z" />
<glyph unicode="&#x10d8;" horiz-adv-x="551" d="M501 274q0 -211 -119 -304h-69q68 95 68 278v156q0 66 -8 110.5t-22 71t-33.5 37.5t-41.5 11q-26 0 -45.5 -11t-33 -37.5t-20.5 -70.5t-7 -111v-155q0 -187 68 -279h-69q-119 93 -119 304v134q0 73 16 122t46 78.5t71.5 42t92.5 12.5q55 0 96.5 -13t69.5 -43t43 -80 t16 -123v-130z" />
<glyph unicode="&#x10d9;" horiz-adv-x="543" d="M493 144q0 -41 -17 -72.5t-47 -54t-71.5 -34.5t-90.5 -13q-48 1 -89.5 13t-72 32.5t-48 49t-17.5 63.5v18q0 84 91 160l46 -34q-16 -49 -16 -124v-22q0 -22 7.5 -44.5t21 -40.5t33 -29.5t44.5 -11.5q51 0 79 36t28 108v52q0 42 -7 72t-19 49t-27 28t-31 9l-81 -9v66 l77 -10q28 0 50.5 22.5t22.5 74.5v32q0 43 -24.5 64t-69.5 21v48q96 0 152.5 -36.5t56.5 -96.5v-17q0 -82 -129 -131l-1 -11q149 -48 149 -175v-52z" />
<glyph unicode="&#x10da;" horiz-adv-x="1005" d="M955 431q0 -126 -118 -265l-43 34q38 122 38 238v36q0 78 -15.5 120t-61.5 42q-45 0 -64.5 -35.5t-19.5 -113.5v-195h-90v195q0 86 -21 119t-59 33q-41 0 -60.5 -33t-19.5 -116v-198h-89v199q0 78 -21.5 110.5t-58.5 32.5q-26 0 -40.5 -11t-22 -33t-9.5 -55.5t-2 -78.5 v-44q0 -233 105 -312q107 -80 245 -80q130 5 184 50h57v-95h-237q-111 0 -200 26.5t-152 77t-96.5 125t-33.5 170.5v90q0 50 15 87.5t41 62.5t61 37.5t75 12.5q91 0 138 -75q32 80 120 80q85 0 126 -78q49 73 141 73q40 0 74 -13.5t59.5 -38t40 -58.5t14.5 -75v-48z" />
<glyph unicode="&#x10db;" horiz-adv-x="562" d="M388 285q0 28 -7 53t-21.5 44t-35.5 29.5t-48 10.5q-49 0 -77.5 -40.5t-28.5 -109.5v-112q0 -42 8.5 -72.5t23.5 -50t34 -28.5t40 -9q45 0 78.5 37t33.5 113v135zM502 168q0 -104 -60.5 -151t-165.5 -47q-45 1 -86 13t-72 36.5t-49.5 62t-18.5 88.5v84q0 48 18 84.5 t49 61t72.5 37.5t88.5 13q68 0 110 -51v115q0 36 -9 59.5t-24 37t-33.5 18.5t-37.5 5q-48 0 -72.5 -27t-24.5 -62v-37h-114v37q0 25 15 46.5t43 37.5t66.5 25t85.5 9q46 0 86 -7.5t69.5 -26t46.5 -51.5t17 -84v-326z" />
<glyph unicode="&#x10dc;" horiz-adv-x="562" d="M393 279q0 30 -9 56t-23.5 45.5t-34 30.5t-40.5 11q-55 0 -83 -39t-28 -105v-135q0 -73 31 -108t79 -35q33 0 54 12t33 32.5t16.5 47t4.5 56.5v131zM512 151q0 -44 -17 -77.5t-47 -56.5t-72 -35t-91 -12q-44 0 -85 11t-72 33.5t-49.5 56.5t-18.5 81v347q0 46 10 77.5 t28.5 51t45.5 27.5t61 8q25 0 46 -3.5t39.5 -8t35.5 -8t34 -3.5q59 0 124 27l1 -50q-39 -58 -102 -58q-24 0 -44 9.5t-37.5 21.5t-34 21.5t-34.5 9.5q-14 0 -24.5 -3t-18 -12t-11.5 -25t-4 -41l1 -132q49 42 109 42q115 0 171 -49.5t56 -130.5v-119z" />
<glyph unicode="&#x10dd;" horiz-adv-x="822" d="M651 403q0 69 -8 113.5t-21.5 70.5t-33 36.5t-41.5 10.5q-37 0 -61 -33t-24 -113v-271h-100v271q0 79 -21.5 112.5t-64.5 33.5q-22 0 -41 -10t-33.5 -36.5t-22.5 -71t-8 -113.5v-120q0 -203 148 -308h-97q-172 103 -172 321v115q0 69 18 117t47.5 78t66.5 43.5t75 13.5 q115 0 157 -92q29 92 154 92q46 0 83.5 -14.5t64.5 -45t41.5 -78.5t14.5 -114v-114q0 -218 -179 -322h-93q151 105 151 308v120z" />
<glyph unicode="&#x10de;" horiz-adv-x="552" d="M502 150q0 -34 -15 -66.5t-43.5 -57.5t-70.5 -40.5t-96 -15.5q-43 0 -83.5 11.5t-72.5 34.5t-51.5 58t-19.5 82v41q0 68 68 128l67 -30q-14 -40 -14 -88v-56q0 -28 5 -55t17 -48.5t32.5 -35t51.5 -13.5q34 0 55 14t32 36.5t15 50.5t4 56v59q0 55 -7.5 88.5t-20.5 51.5 t-30 24t-36 6h-73v50h73q13 0 29 4t29 13.5t22 24.5t9 37q0 63 -113 74q-112 10 -112 76h140q0 -41 97 -60q98 -20 98 -78q0 -83 -136 -111v-5q150 -56 150 -193v-67z" />
<glyph unicode="&#x10df;" horiz-adv-x="562" d="M502 141q0 -31 -13.5 -61.5t-41.5 -55t-70.5 -39.5t-99.5 -15q-63 0 -106 13t-70 36t-38.5 53t-11.5 65q0 74 84 137l54 -29q-18 -56 -18 -104q0 -26 4.5 -51t16.5 -45t32.5 -32.5t52.5 -12.5q40 0 62 14.5t33 36.5t13.5 47.5t2.5 47.5v481l-185 -23v-11 q69 -17 101.5 -47.5t32.5 -78.5q0 -124 -266 -124v83q60 -20 90 -20q63 0 63 64q0 59 -26.5 85.5t-94.5 26.5h-16h-7.5t-8.5 -1v45l431 46v-531z" />
<glyph unicode="&#x10e0;" horiz-adv-x="863" d="M813 231q0 -158 -176 -256h-107q163 90 163 256v60q0 81 -29.5 120.5t-75.5 39.5q-107 0 -107 -149v-147h-99v147q0 149 -106 149q-20 0 -38.5 -7t-33.5 -25t-24 -49t-9 -79v-60q0 -166 170 -256h-108q-182 89 -182 256v60q0 88 39 157.5t112.5 117t179 72.5t239.5 25 l-1 -90q-39 3 -81 3q-51 0 -102 -4t-108 -12q-156 -23 -193 -138q56 59 140 59q97 0 156 -95q62 95 156 95q51 0 92.5 -13t71 -37t45.5 -59.5t16 -80.5v-60z" />
<glyph unicode="&#x10e1;" horiz-adv-x="561" d="M510 169q0 -94 -58 -146.5t-167 -52.5q-106 0 -165.5 50.5t-59.5 156.5v485l115 -15v-470q0 -85 28 -132t82 -47q25 0 45.5 13t34 36.5t21 54.5t7.5 67v19q0 68 -43 123q-42 54 -42 105q0 41 25 87l77 -18q-28 -43 -28 -72q0 -22 16.5 -45t47.5 -46q64 -48 64 -134v-19z " />
<glyph unicode="&#x10e2;" horiz-adv-x="676" d="M507 387q0 72 -11.5 119t-31 74.5t-44.5 38t-52 10.5l19 -382h-102l18 382q-24 -1 -48 -11.5t-43 -37.5t-30.5 -73.5t-11.5 -119.5v-171q0 -48 12 -88t33.5 -68.5t52.5 -44t70 -15.5q40 0 71.5 15.5t53.5 44t33 68.5t11 88v171zM626 236q0 -56 -21 -104.5t-59 -84.5 t-91 -56.5t-117 -20.5q-65 0 -118 20t-91 56t-58.5 84.5t-20.5 105.5v151q0 58 21.5 106.5t56 83.5t78 54.5t87.5 19.5v22h86l-1 -22q43 0 87.5 -20t80 -55t58 -83.5t22.5 -105.5v-151z" />
<glyph unicode="&#x10e3;" horiz-adv-x="599" d="M547 158q0 -39 -11.5 -73.5t-37 -60t-66.5 -40t-99 -14.5q-50 0 -93 11.5t-74.5 34t-50 55t-18.5 74.5v25q0 103 109 161l32 -33q-20 -32 -20 -108v-47q0 -67 27.5 -105t87.5 -38q32 0 51.5 11t29.5 32t13 50.5t3 66.5v418q0 8 -4 17.5t-10.5 18t-15.5 14t-19 5.5 q-18 0 -28 -6t-15 -16t-6.5 -22.5t-1.5 -24.5v-151h-92v151q0 12 -0.5 24t-4 22t-13 16.5t-27.5 6.5t-29.5 -10t-20.5 -22.5t-19.5 -22.5t-26.5 -10q-22 0 -47 12v82q24 -15 49 -15q6 0 11.5 0.5t10.5 1.5l20 5q10 2 20.5 5t25.5 3q66 0 98 -66q40 66 115 66q27 0 53.5 -3.5 t47.5 -17t34 -39.5t14 -71z" />
<glyph unicode="&#x10e4;" horiz-adv-x="822" d="M361 474q0 47 -6 78t-18.5 49t-31 25t-42.5 7q-48 0 -70.5 -34.5t-22.5 -119.5v-79q0 -81 20 -123.5t75 -42.5q51 0 73.5 42.5t22.5 123.5v74zM745 130q0 -42 -20 -72t-55.5 -49.5t-85 -29t-108.5 -9.5q-65 0 -115.5 8t-85 29t-52.5 56.5t-18 91.5h126q0 -45 9 -75 t27.5 -47.5t47.5 -25t68 -7.5q34 0 60.5 11.5t45 30t28 42t9.5 46.5v42q0 18 -5.5 35t-15.5 30.5t-25 21.5t-33 8h-31v45h41q22 0 38.5 11t27 28.5t15.5 39.5t5 45v53q0 66 -19.5 102t-57.5 36q-17 0 -33 -9.5t-29 -24.5t-21 -34.5t-8 -40.5l1 -119q-1 -94 -56 -145 t-155 -51q-103 0 -159 51.5t-56 145.5v74q0 101 56.5 145t160.5 44q148 0 186 -86q28 79 129 79q37 0 70 -13t57.5 -36t38.5 -54t14 -67v-35q0 -114 -151 -157v-10q134 -38 134 -136v-18z" />
<glyph unicode="&#x10e5;" horiz-adv-x="561" d="M501 120q0 -28 -14 -55t-42.5 -48t-71 -34t-99.5 -13q-47 0 -88 12.5t-71 33.5t-47.5 49t-17.5 60v9q0 72 54 116h87q-19 -41 -19 -118v-12q0 -25 8 -47t21.5 -38t32 -25.5t40.5 -9.5q37 0 60 10.5t35 27t16 37t4 41.5v356q-68 65 -125 65q-27 0 -48 -25t-21 -62 q0 -42 22 -82h-89q-45 42 -45 82q0 28 14 49.5t37.5 36.5t54.5 22.5t65 7.5q85 0 135 -47v110l-87 -19v44h199v-534z" />
<glyph unicode="&#x10e6;" horiz-adv-x="799" d="M749 431q0 -116 -108 -231l-51 29q40 90 40 177v49q0 46 -3 80t-11.5 56t-24 32.5t-40.5 10.5q-24 0 -43 -5t-32 -20t-20 -42.5t-7 -71.5v-172h-99v172q-1 44 -8 71.5t-20 42.5t-31 20t-40 5q-35 0 -55.5 -47t-20.5 -158v-51q0 -84 16 -150.5t49.5 -112.5t86 -70.5 t124.5 -24.5q47 0 123 46h46v-91h-168q-101 0 -176.5 33t-125.5 88.5t-75 128t-25 151.5v52q0 52 12.5 95.5t37.5 74.5t62.5 48t87.5 17q104 0 149 -77q45 77 149 77q58 0 97 -13t62 -38.5t32.5 -64t9.5 -89.5v-27z" />
<glyph unicode="&#x10e7;" horiz-adv-x="562" d="M502 142q0 -81 -52 -126.5t-173 -45.5q-56 0 -98.5 10.5t-71 29.5t-42.5 44t-14 54q0 70 55 125l72 -25q-4 -35 -5.5 -60.5t-1.5 -42.5q0 -19 8 -37.5t22 -33.5t33.5 -24.5t42.5 -9.5q41 0 63.5 11.5t33 31.5t12.5 47.5t2 60.5v169q-52 -46 -120 -46q-40 0 -76.5 10 t-64 32.5t-44 57t-16.5 84.5v21q0 48 22.5 96.5t70.5 99.5l84 -18q-58 -100 -58 -177v-35q0 -78 22.5 -108.5t64.5 -30.5q19 0 39 8.5t37 22.5t28 32.5t11 38.5v238l114 16v-520z" />
<glyph unicode="&#x10e8;" horiz-adv-x="566" d="M506 181q0 -211 -226 -211q-51 0 -93 17.5t-72 46.5t-46 65.5t-16 75.5v73q0 39 15.5 75.5t45 64.5t71 45t93.5 17q77 0 114 -52v185q0 25 -10 38t-38 13q-23 0 -32 -19t-9 -70v-35h-82v35q0 49 -8.5 69t-36.5 20q-25 0 -32.5 -15.5t-7.5 -49.5v-51h-101v51q0 22 10 39.5 t28 29.5t42 18.5t52 6.5q53 0 93 -46q41 47 91 47q48 0 78 -11t47.5 -31t23.5 -48.5t6 -64.5v-328zM392 276q0 69 -28 107.5t-82 38.5q-33 0 -54 -18t-33 -45.5t-16 -60.5t-4 -62v-59q0 -27 4.5 -58.5t16.5 -57.5t32 -43.5t52 -17.5q33 0 55 17.5t34.5 43.5t17.5 54.5 t5 51.5v109z" />
<glyph unicode="&#x10e9;" horiz-adv-x="562" d="M293 495q7 25 7 64q0 40 -15 57.5t-44 17.5q-63 0 -63 -88v-129q48 33 107 33q56 0 98.5 -15.5t71 -42t43 -62.5t14.5 -77v-34q0 -135 -103 -247h-91q75 93 75 222v74q0 24 -6 51t-18.5 50t-33 38t-50.5 15q-18 0 -37 -6t-34.5 -18t-25.5 -29.5t-10 -40.5v-353h-118v526 q0 45 9.5 75.5t30.5 50t55 28t82 8.5q31 0 61 -6.5t53 -18.5t37 -29t14 -38q0 -56 -91 -92z" />
<glyph unicode="&#x10ea;" horiz-adv-x="603" d="M553 172q0 -40 -17 -76.5t-49.5 -64.5t-78 -44.5t-102.5 -16.5q-63 0 -111 21.5t-80.5 55.5t-48.5 77t-16 87v183q0 172 99 267h62q-41 -105 -41 -267v-183q0 -33 8 -70.5t24.5 -68.5t42 -51.5t60.5 -20.5q28 0 52 16t41 40.5t26.5 55t9.5 60.5v35q0 57 -26.5 94 t-78.5 37l-70 -10v66l70 -9q45 0 65.5 25.5t20.5 67.5q0 65 -57 97q-57 31 -57 88h87q0 -65 72 -96q74 -32 74 -87q0 -79 -148 -113v-12q167 -29 167 -146v-37z" />
<glyph unicode="&#x10eb;" horiz-adv-x="561" d="M387 281q0 28 -8 53.5t-23 44.5t-35.5 30.5t-44.5 11.5q-20 0 -39 -10.5t-34 -31t-24 -50t-9 -67.5v-107q0 -36 8.5 -65.5t23 -49.5t34 -31t41.5 -11q28 0 49 15.5t34.5 39t20 51.5t6.5 54v123zM501 155q0 -33 -13.5 -66t-41.5 -59.5t-70 -43t-99 -16.5q-60 0 -103 16.5 t-70.5 43.5t-40.5 61.5t-13 71.5v104q0 90 57 136.5t153 46.5q81 0 127 -52v249l114 16v-508z" />
<glyph unicode="&#x10ec;" horiz-adv-x="567" d="M60 509q0 36 6.5 64.5t24 49t47.5 31t78 10.5q50 0 91 -47q23 25 46 35.5t50 10.5q57 0 93 -26t36 -68v-51h-101v51q0 34 -7 49.5t-33 15.5q-28 0 -36.5 -20t-8.5 -69v-35h-82v35q0 51 -9 70t-34 19q-27 0 -35 -23t-8 -66l-1 -136q38 41 121 41q46 0 85.5 -17t68 -45.5 t44.5 -65t16 -74.5v-73q0 -38 -16 -74.5t-45 -65.5t-71 -47t-93 -18q-112 0 -169.5 52.5t-57.5 158.5v328zM177 167q0 -23 3.5 -51.5t15 -54.5t33.5 -43.5t58 -17.5q31 0 51.5 17.5t32.5 44t17 57.5t5 58v59q0 30 -4.5 63t-16.5 60.5t-33 45t-54 17.5q-48 0 -78 -43 t-30 -131v-81z" />
<glyph unicode="&#x10ed;" horiz-adv-x="552" d="M272 522h-48q-36 0 -36 -52q0 -57 37 -57h58zM388 377q0 -23 57 -81q57 -59 57 -152q0 -83 -52.5 -128.5t-171.5 -45.5q-112 0 -169.5 44t-57.5 132q0 76 110 145l31 -21q-21 -80 -21 -128q0 -20 5.5 -44.5t18.5 -46.5t33 -37t50 -16q57 2 81 38.5t24 99.5q0 104 -49 166 q-48 61 -48 75h-60q-133 0 -133 93q0 85 133 85h46v78l-71 -17v33l177 14v-108h78v-33h-78l7 -109h71v-36h-68z" />
<glyph unicode="&#x10ee;" horiz-adv-x="561" d="M60 663l114 -16v-249q46 52 127 52q96 0 153 -46.5t57 -136.5v-104q0 -37 -13 -71.5t-40.5 -61.5t-70.5 -43.5t-103 -16.5q-57 0 -99.5 16.5t-70 43t-41 59.5t-13.5 66v508zM174 158q0 -27 6.5 -55t20 -51.5t34 -38.5t49.5 -15q22 0 41.5 11t34 31t23 49.5t8.5 65.5v107 q0 37 -9 66.5t-24 50t-34 31.5t-39 11q-24 0 -44.5 -11.5t-35.5 -30.5t-23 -44.5t-8 -53.5v-123z" />
<glyph unicode="&#x10ef;" horiz-adv-x="551" d="M69 557h165l-10 96l109 18l-22 -114h168v-55h-163q0 -54 92 -140q93 -86 93 -169v-38q0 -41 -15.5 -75t-44.5 -58.5t-71 -38t-94 -13.5q-47 0 -88 15t-71.5 40t-48.5 57.5t-18 67.5v50q0 82 119 144l46 -27q-45 -41 -45 -121v-41q0 -81 27.5 -119t78.5 -38q34 0 55 11 t32.5 31.5t15 48.5t3.5 62v45q0 73 -72 165q-72 93 -72 141h-169v55z" />
<glyph unicode="&#x10f0;" horiz-adv-x="541" d="M491 131q0 -75 -59 -118t-165 -43q-112 0 -169.5 50.5t-57.5 153.5h120q0 -34 6 -65.5t18.5 -55.5t33 -38.5t49.5 -14.5q60 0 82.5 32.5t22.5 89.5q0 135 -109 135l-92 -4v56l92 -9q93 0 93 67q0 73 -108 73l-83 -4v58l83 -9q103 0 103 65q0 33 -16 52.5t-51 19.5 q-39 0 -140 -26v75q104 -4 166.5 -12.5t95.5 -22t43.5 -33t10.5 -44.5q0 -57 -91 -91v-11q106 -22 106 -89q0 -57 -101 -89v-10q117 -33 117 -138z" />
<glyph unicode="&#x1c90;" horiz-adv-x="552" d="M502 169q0 -41 -11.5 -77.5t-38 -63.5t-69 -42.5t-105.5 -15.5q-115 0 -171.5 49t-56.5 140v36q0 111 107 189l44 -36q-29 -53 -29 -136v-38q0 -34 5.5 -65.5t18 -55.5t32.5 -39t50 -16q60 2 82.5 45t22.5 118v65q0 150 -108 240q-51 42 -76 79t-25 73v35h120v-15 q-9 -24 -9 -47q0 -78 98 -141q119 -105 119 -214v-67z" />
<glyph unicode="&#x1c91;" horiz-adv-x="552" d="M170 163q0 -90 29.5 -126.5t76.5 -36.5q57 0 82 36.5t25 121.5v98q0 49 -8 81t-22 51t-33.5 26.5t-43.5 7.5q-23 0 -42 -8t-33.5 -26.5t-22.5 -50.5t-8 -80v-94zM283 663q0 -23 8 -42.5t17.5 -37.5t17.5 -35.5t8 -38.5q0 -17 -11 -59q31 0 63 -14t58 -40t42 -63t16 -83 v-90q0 -38 -17 -72.5t-47.5 -60.5t-72 -41.5t-89.5 -15.5q-51 0 -92.5 15.5t-71.5 42t-46 61t-16 73.5v88q0 46 17.5 83t46 63t64.5 40t72 14q9 27 9 47q0 47 -43 62q-62 23 -63 104h130z" />
<glyph unicode="&#x1c92;" horiz-adv-x="589" d="M419 228q0 40 -8.5 75.5t-24.5 62t-39.5 42t-53.5 15.5q-35 0 -58.5 -15.5t-37.5 -42.5t-20 -62.5t-6 -74.5v-49q0 -36 7.5 -68.5t23 -57t38.5 -39t54 -14.5q37 0 61.5 16t38.5 41.5t19.5 57t5.5 63.5v50zM539 172q0 -97 -60.5 -149.5t-190.5 -52.5q-59 1 -103.5 18 t-74.5 44.5t-45 64t-15 75.5v59q0 42 14 80.5t43.5 68.5t74 49t105.5 21q58 36 58 88q0 58 -14 77t-44 19q-48 0 -61 -19.5t-13 -55.5l7 -38l-104 -15l-10 43q0 57 48.5 85.5t130.5 28.5q37 0 69 -6.5t54.5 -20t35.5 -35.5t13 -52q0 -65 -110 -103q37 -2 72 -18t61.5 -43.5 t42.5 -66t16 -86.5v-60z" />
<glyph unicode="&#x1c93;" horiz-adv-x="830" d="M626 -25h-185q-96 0 -168.5 31.5t-121.5 85t-74.5 124t-26.5 149.5l1 66q2 115 55 173.5t165 58.5q68 0 113 -66q49 66 182 66q46 0 85.5 -11t68 -35.5t44.5 -65t16 -98.5v-109q0 -55 -16.5 -95t-45.5 -66t-68 -38.5t-84 -12.5q-109 0 -167.5 55t-58.5 161v102 q0 56 22 112q-47 72 -98 72q-21 0 -38 -9t-29 -32t-19 -62t-7 -100v-27q0 -91 15.5 -162.5t47 -120.5t79 -75t111.5 -26q88 0 167 55h35v-100zM662 453q0 55 -6 90t-18 55.5t-30 28t-42 7.5q-29 0 -49 -7.5t-32.5 -28t-18 -55.5t-5.5 -89v-105q0 -33 1.5 -66t11.5 -59.5 t31.5 -42.5t60.5 -16q33 0 52.5 15t29 39.5t12 55t2.5 60.5v118z" />
<glyph unicode="&#x1c94;" horiz-adv-x="562" d="M502 143q0 -50 -16.5 -82.5t-46 -52.5t-71 -28.5t-92.5 -9.5q-109 1 -167.5 48t-58.5 128q0 93 104 159l40 -30q-24 -38 -24 -130q0 -82 27.5 -114t78.5 -32q48 0 80 29.5t32 89.5v406q0 54 -24.5 82t-69.5 28q-51 0 -75.5 -28t-24.5 -79q0 -57 28 -97l-69 -35 q-69 70 -69 130q0 36 17 62t45.5 43t65.5 25t76 8q106 0 160 -40t54 -128v-352z" />
<glyph unicode="&#x1c95;" horiz-adv-x="552" d="M502 119q0 -35 -17 -62.5t-47 -46.5t-71.5 -29.5t-90.5 -10.5q-45 0 -86 11.5t-72 32.5t-49.5 51.5t-18.5 69.5v27q0 83 85 144l50 -30q-14 -36 -14 -104v-50q0 -24 7.5 -46.5t21 -39t33 -26.5t43.5 -10q55 0 81 32.5t26 86.5v82q0 147 -63 147l-85 -10v61l88 -10 q55 1 55 124v20q0 15 -5.5 32.5t-17 32.5t-29.5 25.5t-43 10.5q-24 0 -42.5 -8.5t-31 -22.5t-18.5 -32.5t-6 -37.5v-15q0 -46 15 -68l-66 -36q-52 45 -52 101v23q0 27 14.5 50t41 39.5t63 26t80.5 9.5q51 0 90.5 -12.5t66 -33t40.5 -46.5t14 -53v-13q0 -67 -108 -131v-9 q118 -34 118 -164v-82z" />
<glyph unicode="&#x1c96;" horiz-adv-x="582" d="M381 537q0 -23 -8.5 -41.5t-22 -32.5t-30 -23t-32.5 -12q56 0 101 -15t77 -40.5t49 -59.5t17 -73v-69q0 -49 -17.5 -86.5t-47.5 -63t-71 -38.5t-88 -13q-49 0 -90.5 13.5t-72 39t-47.5 63t-17 85.5v66q0 31 11 59t28.5 50.5t40.5 39.5t47 26h-20q-28 0 -55.5 9t-49 25 t-35 37.5t-13.5 47.5v15q0 24 12 45.5t34.5 37t54 25t70.5 9.5q85 0 130 -34.5t45 -85.5v-6zM202 182q0 -38 5.5 -71t18 -57.5t33.5 -39t52 -14.5q33 0 53.5 14.5t31.5 39.5t15 59t4 74v34q0 88 -25.5 134.5t-76.5 46.5q-33 0 -54.5 -12t-34 -34.5t-17.5 -54.5t-5 -72v-47z M269 546q0 42 -13 64.5t-49 22.5q-21 0 -33.5 -6.5t-18.5 -18.5t-8 -28.5t-2 -35.5v-28q0 -37 12.5 -60.5t56.5 -23.5q22 0 33.5 6.5t16 17.5t5 26.5t0.5 33.5v30z" />
<glyph unicode="&#x1c97;" horiz-adv-x="811" d="M361 495q0 72 -29 105.5t-69 33.5q-26 0 -44 -8t-28.5 -29t-15 -56.5t-4.5 -90.5v-244q0 -41 5 -78.5t15.5 -66t27.5 -45t41 -16.5q31 0 50.5 15.5t31 44t15.5 67.5t4 86v282zM760 261q-1 -91 -35.5 -162.5t-106.5 -128.5h-83q54 54 79.5 124.5t26.5 161.5l1 185 q1 105 -19 149t-54 44q-19 0 -35 -10t-28 -26.5t-18.5 -38t-6.5 -43.5v-301q0 -59 -16.5 -104.5t-45.5 -76t-69.5 -47t-89.5 -17.5q-100 1 -155 63t-55 177v224q0 115 54.5 172t160.5 57q130 0 180 -87q37 87 129 87q85 0 135.5 -55t51.5 -158z" />
<glyph unicode="&#x1c98;" horiz-adv-x="551" d="M501 274q0 -211 -119 -304h-69q68 95 68 278v156q0 66 -8 110.5t-22 71t-33.5 37.5t-41.5 11q-26 0 -45.5 -11t-33 -37.5t-20.5 -70.5t-7 -111v-155q0 -187 68 -279h-69q-119 93 -119 304v134q0 73 16 122t46 78.5t71.5 42t92.5 12.5q55 0 96.5 -13t69.5 -43t43 -80 t16 -123v-130z" />
<glyph unicode="&#x1c99;" horiz-adv-x="543" d="M493 144q0 -41 -17 -72.5t-47 -54t-71.5 -34.5t-90.5 -13q-48 1 -89.5 13t-72 32.5t-48 49t-17.5 63.5v18q0 84 91 160l46 -34q-16 -47 -16 -124v-22q0 -22 7.5 -44.5t21 -40.5t33 -29.5t44.5 -11.5q51 0 79 36t28 108v52q0 42 -7 72t-19 49t-27 28t-31 9l-81 -9v66 l77 -10q28 0 50.5 22.5t22.5 74.5v32q0 43 -24.5 64t-69.5 21v48q96 0 152.5 -36.5t56.5 -96.5v-17q0 -82 -129 -131l-1 -11q149 -48 149 -175v-52z" />
<glyph unicode="&#x1c9a;" horiz-adv-x="1005" d="M955 431q0 -126 -118 -265l-43 34q38 125 38 238v36q0 78 -15.5 120t-61.5 42q-45 0 -64.5 -35.5t-19.5 -113.5v-195h-90v195q0 86 -21 119t-59 33q-41 0 -60.5 -33t-19.5 -116v-198h-89v199q0 78 -21.5 110.5t-58.5 32.5q-26 0 -40.5 -11t-22 -33t-9.5 -55.5t-2 -78.5 v-44q0 -233 105 -312q107 -80 245 -80q130 5 184 50h57v-95h-237q-111 0 -200 26.5t-152 77t-96.5 125t-33.5 170.5v90q0 50 15 87.5t41 62.5t61 37.5t75 12.5q91 0 138 -75q32 80 120 80q85 0 126 -78q49 73 141 73q40 0 74 -13.5t59.5 -38t40 -58.5t14.5 -75v-48z" />
<glyph unicode="&#x1c9b;" horiz-adv-x="562" d="M388 285q0 28 -7 53t-21.5 44t-35.5 29.5t-48 10.5q-49 0 -77.5 -40.5t-28.5 -109.5v-112q0 -42 8.5 -72.5t23.5 -50t34 -28.5t40 -9q45 0 78.5 37t33.5 113v135zM502 168q0 -104 -60.5 -151t-165.5 -47q-45 1 -86 13t-72 36.5t-49.5 62t-18.5 88.5v84q0 48 18 84.5 t49 61t72.5 37.5t88.5 13q68 0 110 -51v115q0 36 -9 59.5t-24 37t-33.5 18.5t-37.5 5q-48 0 -72.5 -27t-24.5 -62v-37h-114v37q0 25 15 46.5t43 37.5t66.5 25t85.5 9q46 0 86 -7.5t69.5 -26t46.5 -51.5t17 -84v-326z" />
<glyph unicode="&#x1c9c;" horiz-adv-x="562" d="M393 279q0 30 -9 56t-23.5 45.5t-34 30.5t-40.5 11q-55 0 -83 -39t-28 -105v-135q0 -73 31 -108t79 -35q33 0 54 12t33 32.5t16.5 47t4.5 56.5v131zM512 151q0 -44 -17 -77.5t-47 -56.5t-72 -35t-91 -12q-44 0 -85 11t-72 33.5t-49.5 56.5t-18.5 81v347q0 46 10 77.5 t28.5 51t45.5 27.5t61 8q25 0 46 -3.5t39.5 -8t35.5 -8t34 -3.5q59 0 124 27l1 -50q-39 -58 -102 -58q-24 0 -44 9.5t-37.5 21.5t-34 21.5t-34.5 9.5q-14 0 -24.5 -3t-18 -12t-11.5 -25t-4 -41l1 -132q49 42 109 42q115 0 171 -49.5t56 -130.5v-119z" />
<glyph unicode="&#x1c9d;" horiz-adv-x="822" d="M651 403q0 69 -8 113.5t-21.5 70.5t-33 36.5t-41.5 10.5q-37 0 -61 -33t-24 -113v-271h-100v271q0 79 -21.5 112.5t-64.5 33.5q-22 0 -41 -10t-33.5 -36.5t-22.5 -71t-8 -113.5v-120q0 -203 148 -308h-97q-172 103 -172 321v115q0 69 18 117t47.5 78t66.5 43.5t75 13.5 q115 0 157 -92q29 92 154 92q46 0 83.5 -14.5t64.5 -45t41.5 -78.5t14.5 -114v-114q0 -218 -179 -322h-93q151 105 151 308v120z" />
<glyph unicode="&#x1c9e;" horiz-adv-x="552" d="M502 150q0 -34 -15 -66.5t-43.5 -57.5t-70.5 -40.5t-96 -15.5q-43 0 -83.5 11.5t-72.5 34.5t-51.5 58t-19.5 82v41q0 68 68 128l67 -30q-14 -44 -14 -88v-56q0 -28 5 -55t17 -48.5t32.5 -35t51.5 -13.5q34 0 55 14t32 36.5t15 50.5t4 56v59q0 55 -7.5 88.5t-20.5 51.5 t-30 24t-36 6h-73v50h73q13 0 29 4t29 13.5t22 24.5t9 37q0 63 -113 74q-112 10 -112 76h140q0 -41 97 -60q98 -20 98 -78q0 -83 -136 -111v-5q150 -56 150 -193v-67z" />
<glyph unicode="&#x1c9f;" horiz-adv-x="562" d="M502 141q0 -31 -13.5 -61.5t-41.5 -55t-70.5 -39.5t-99.5 -15q-63 0 -106 13t-70 36t-38.5 53t-11.5 65q0 74 84 137l54 -29q-18 -56 -18 -104q0 -26 4.5 -51t16.5 -45t32.5 -32.5t52.5 -12.5q40 0 62 14.5t33 36.5t13.5 47.5t2.5 47.5v481l-185 -23v-11 q69 -17 101.5 -47.5t32.5 -78.5q0 -124 -266 -124v83q63 -20 90 -20q63 0 63 64q0 59 -26.5 85.5t-94.5 26.5h-24q-6 0 -8 -1v45l431 46v-531z" />
<glyph unicode="&#x1ca0;" horiz-adv-x="863" d="M813 231q0 -158 -176 -256h-107q163 90 163 256v60q0 81 -29.5 120.5t-75.5 39.5q-107 0 -107 -149v-147h-99v147q0 149 -106 149q-20 0 -38.5 -7t-33.5 -25t-24 -49t-9 -79v-60q0 -166 170 -256h-108q-182 89 -182 256v60q0 88 39 157.5t112.5 117t179 72.5t239.5 25 l-1 -90q-39 3 -81 3q-51 0 -102 -4t-108 -12q-156 -23 -193 -138q56 59 140 59q97 0 156 -95q62 95 156 95q51 0 92.5 -13t71 -37t45.5 -59.5t16 -80.5v-60z" />
<glyph unicode="&#x1ca1;" horiz-adv-x="561" d="M510 169q0 -94 -58 -146.5t-167 -52.5q-106 0 -165.5 50.5t-59.5 156.5v485l115 -15v-470q0 -85 28 -132t82 -47q25 0 45.5 13t34 36.5t21 54.5t7.5 67v19q0 68 -43 123q-42 54 -42 105q0 41 25 87l77 -18q-28 -43 -28 -72q0 -22 16.5 -45t47.5 -46q64 -48 64 -134v-19z " />
<glyph unicode="&#x1ca2;" horiz-adv-x="676" d="M507 387q0 72 -11.5 119t-31 74.5t-44.5 38t-52 10.5l19 -382h-102l18 382q-24 -1 -48 -11.5t-43 -37.5t-30.5 -73.5t-11.5 -119.5v-171q0 -48 12 -88t33.5 -68.5t52.5 -44t70 -15.5q40 0 71.5 15.5t53.5 44t33 68.5t11 88v171zM626 236q0 -56 -21 -104.5t-59 -84.5 t-91 -56.5t-117 -20.5q-65 0 -118 20t-91 56t-58.5 84.5t-20.5 105.5v151q0 58 21.5 106.5t56 83.5t78 54.5t87.5 19.5v22h86l-1 -22q43 0 87.5 -20t80 -55t58 -83.5t22.5 -105.5v-151z" />
<glyph unicode="&#x1ca3;" horiz-adv-x="599" d="M547 158q0 -39 -11.5 -73.5t-37 -60t-66.5 -40t-99 -14.5q-50 0 -93 11.5t-74.5 34t-50 55t-18.5 74.5v25q0 103 109 161l32 -33q-20 -32 -20 -108v-47q0 -67 27.5 -105t87.5 -38q32 0 51.5 11t29.5 32t13 50.5t3 66.5v418q0 8 -4 17.5t-10.5 18t-15.5 14t-19 5.5 q-18 0 -28 -6t-15 -16t-6.5 -22.5t-1.5 -24.5v-151h-92v151q0 12 -0.5 24t-4 22t-13 16.5t-27.5 6.5t-29.5 -10t-20.5 -22.5t-19.5 -22.5t-26.5 -10q-22 0 -47 12v82q24 -15 49 -15q6 0 11.5 0.5t10.5 1.5l20 5q10 2 20.5 5t25.5 3q66 0 98 -66q40 66 115 66q27 0 53.5 -3.5 t47.5 -17t34 -39.5t14 -71z" />
<glyph unicode="&#x1ca4;" horiz-adv-x="822" d="M361 474q0 47 -6 78t-18.5 49t-31 25t-42.5 7q-48 0 -70.5 -34.5t-22.5 -119.5v-79q0 -81 20 -123.5t75 -42.5q51 0 73.5 42.5t22.5 123.5v74zM745 130q0 -42 -20 -72t-55.5 -49.5t-85 -29t-108.5 -9.5q-65 0 -115.5 8t-85 29t-52.5 56.5t-18 91.5h126q0 -45 9 -75 t27.5 -47.5t47.5 -25t68 -7.5q34 0 60.5 11.5t45 30t28 42t9.5 46.5v42q0 18 -5.5 35t-15.5 30.5t-25 21.5t-33 8h-31v45h41q22 0 38.5 11t27 28.5t15.5 39.5t5 45v53q0 66 -19.5 102t-57.5 36q-17 0 -33 -9.5t-29 -24.5t-21 -34.5t-8 -40.5l1 -119q-1 -94 -56 -145 t-155 -51q-103 0 -159 51.5t-56 145.5v74q0 101 56.5 145t160.5 44q148 0 186 -86q28 79 129 79q37 0 70 -13t57.5 -36t38.5 -54t14 -67v-35q0 -114 -151 -157v-10q134 -38 134 -136v-18z" />
<glyph unicode="&#x1ca5;" horiz-adv-x="561" d="M501 120q0 -28 -14 -55t-42.5 -48t-71 -34t-99.5 -13q-47 0 -88 12.5t-71 33.5t-47.5 49t-17.5 60v9q0 72 54 116h87q-19 -38 -19 -118v-12q0 -25 8 -47t21.5 -38t32 -25.5t40.5 -9.5q37 0 60 10.5t35 27t16 37t4 41.5v356q-68 65 -125 65q-27 0 -48 -25t-21 -62 q0 -42 22 -82h-89q-45 42 -45 82q0 28 14 49.5t37.5 36.5t54.5 22.5t65 7.5q85 0 135 -47v110l-87 -19v44h199v-534z" />
<glyph unicode="&#x1ca6;" horiz-adv-x="799" d="M749 431q0 -116 -108 -231l-51 29q40 87 40 177v49q0 46 -3 80t-11.5 56t-24 32.5t-40.5 10.5q-24 0 -43 -5t-32 -20t-20 -42.5t-7 -71.5v-172h-99v172q-1 44 -8 71.5t-20 42.5t-31 20t-40 5q-35 0 -55.5 -47t-20.5 -158v-51q0 -84 16 -150.5t49.5 -112.5t86 -70.5 t124.5 -24.5q47 0 123 46h46v-91h-168q-101 0 -176.5 33t-125.5 88.5t-75 128t-25 151.5v52q0 52 12.5 95.5t37.5 74.5t62.5 48t87.5 17q104 0 149 -77q45 77 149 77q58 0 97 -13t62 -38.5t32.5 -64t9.5 -89.5v-27z" />
<glyph unicode="&#x1ca7;" horiz-adv-x="562" d="M502 142q0 -81 -52 -126.5t-173 -45.5q-56 0 -98.5 10.5t-71 29.5t-42.5 44t-14 54q0 70 55 125l72 -25q-4 -35 -5.5 -60.5t-1.5 -42.5q0 -19 8 -37.5t22 -33.5t33.5 -24.5t42.5 -9.5q41 0 63.5 11.5t33 31.5t12.5 47.5t2 60.5v169q-52 -46 -120 -46q-40 0 -76.5 10 t-64 32.5t-44 57t-16.5 84.5v21q0 48 22.5 96.5t70.5 99.5l84 -18q-58 -100 -58 -177v-35q0 -78 22.5 -108.5t64.5 -30.5q19 0 39 8.5t37 22.5t28 32.5t11 38.5v238l114 16v-520z" />
<glyph unicode="&#x1ca8;" horiz-adv-x="566" d="M506 181q0 -211 -226 -211q-51 0 -93 17.5t-72 46.5t-46 65.5t-16 75.5v73q0 39 15.5 75.5t45 64.5t71 45t93.5 17q77 0 114 -52v185q0 25 -10 38t-38 13q-23 0 -32 -19t-9 -70v-35h-82v35q0 49 -8.5 69t-36.5 20q-25 0 -32.5 -15.5t-7.5 -49.5v-51h-101v51q0 22 10 39.5 t28 29.5t42 18.5t52 6.5q53 0 93 -46q41 47 91 47q48 0 78 -11t47.5 -31t23.5 -48.5t6 -64.5v-328zM392 276q0 69 -28 107.5t-82 38.5q-33 0 -54 -18t-33 -45.5t-16 -60.5t-4 -62v-59q0 -27 4.5 -58.5t16.5 -57.5t32 -43.5t52 -17.5q33 0 55 17.5t34.5 43.5t17.5 54.5 t5 51.5v109z" />
<glyph unicode="&#x1ca9;" horiz-adv-x="562" d="M293 495q7 22 7 64q0 40 -15 57.5t-44 17.5q-63 0 -63 -88v-129q48 33 107 33q56 0 98.5 -15.5t71 -42t43 -62.5t14.5 -77v-34q0 -135 -103 -247h-91q75 93 75 222v74q0 24 -6 51t-18.5 50t-33 38t-50.5 15q-18 0 -37 -6t-34.5 -18t-25.5 -29.5t-10 -40.5v-353h-118v526 q0 45 9.5 75.5t30.5 50t55 28t82 8.5q31 0 61 -6.5t53 -18.5t37 -29t14 -38q0 -56 -91 -92z" />
<glyph unicode="&#x1caa;" horiz-adv-x="603" d="M553 172q0 -40 -17 -76.5t-49.5 -64.5t-78 -44.5t-102.5 -16.5q-63 0 -111 21.5t-80.5 55.5t-48.5 77t-16 87v183q0 172 99 267h62q-41 -108 -41 -267v-183q0 -33 8 -70.5t24.5 -68.5t42 -51.5t60.5 -20.5q28 0 52 16t41 40.5t26.5 55t9.5 60.5v35q0 57 -26.5 94 t-78.5 37l-70 -10v66l70 -9q45 0 65.5 25.5t20.5 67.5q0 65 -57 97q-57 31 -57 88h87q0 -65 72 -96q74 -32 74 -87q0 -79 -148 -113v-12q167 -29 167 -146v-37z" />
<glyph unicode="&#x1cab;" horiz-adv-x="561" d="M387 281q0 28 -8 53.5t-23 44.5t-35.5 30.5t-44.5 11.5q-20 0 -39 -10.5t-34 -31t-24 -50t-9 -67.5v-107q0 -36 8.5 -65.5t23 -49.5t34 -31t41.5 -11q28 0 49 15.5t34.5 39t20 51.5t6.5 54v123zM501 155q0 -33 -13.5 -66t-41.5 -59.5t-70 -43t-99 -16.5q-60 0 -103 16.5 t-70.5 43.5t-40.5 61.5t-13 71.5v104q0 90 57 136.5t153 46.5q81 0 127 -52v249l114 16v-508z" />
<glyph unicode="&#x1cac;" horiz-adv-x="567" d="M60 509q0 36 6.5 64.5t24 49t47.5 31t78 10.5q50 0 91 -47q23 25 46 35.5t50 10.5q57 0 93 -26t36 -68v-51h-101v51q0 34 -7 49.5t-33 15.5q-28 0 -36.5 -20t-8.5 -69v-35h-82v35q0 51 -9 70t-34 19q-27 0 -35 -23t-8 -66l-1 -136q38 41 121 41q46 0 85.5 -17t68 -45.5 t44.5 -65t16 -74.5v-73q0 -38 -16 -74.5t-45 -65.5t-71 -47t-93 -18q-112 0 -169.5 52.5t-57.5 158.5v328zM177 167q0 -23 3.5 -51.5t15 -54.5t33.5 -43.5t58 -17.5q31 0 51.5 17.5t32.5 44t17 57.5t5 58v59q0 30 -4.5 63t-16.5 60.5t-33 45t-54 17.5q-48 0 -78 -43 t-30 -131v-81z" />
<glyph unicode="&#x1cad;" horiz-adv-x="552" d="M272 522h-48q-36 0 -36 -52q0 -57 37 -57h58zM388 377q0 -23 57 -81q57 -59 57 -152q0 -83 -52.5 -128.5t-171.5 -45.5q-112 0 -169.5 44t-57.5 132q0 76 110 145l31 -21q-21 -80 -21 -128q0 -20 5.5 -44.5t18.5 -46.5t33 -37t50 -16q57 2 81 38.5t24 99.5q0 104 -49 166 q-48 61 -48 75h-60q-133 0 -133 93q0 85 133 85h46v78l-71 -17v33l177 14v-108h78v-33h-78l7 -109h71v-36h-68z" />
<glyph unicode="&#x1cae;" horiz-adv-x="561" d="M60 663l114 -16v-249q46 52 127 52q96 0 153 -46.5t57 -136.5v-104q0 -37 -13 -71.5t-40.5 -61.5t-70.5 -43.5t-103 -16.5q-57 0 -99.5 16.5t-70 43t-41 59.5t-13.5 66v508zM174 158q0 -27 6.5 -55t20 -51.5t34 -38.5t49.5 -15q22 0 41.5 11t34 31t23 49.5t8.5 65.5v107 q0 37 -9 66.5t-24 50t-34 31.5t-39 11q-24 0 -44.5 -11.5t-35.5 -30.5t-23 -44.5t-8 -53.5v-123z" />
<glyph unicode="&#x1caf;" horiz-adv-x="551" d="M69 557h165l-10 96l109 18l-22 -114h168v-55h-163q0 -54 92 -140q93 -86 93 -169v-38q0 -41 -15.5 -75t-44.5 -58.5t-71 -38t-94 -13.5q-47 0 -88 15t-71.5 40t-48.5 57.5t-18 67.5v50q0 82 119 144l46 -27q-45 -41 -45 -121v-41q0 -81 27.5 -119t78.5 -38q34 0 55 11 t32.5 31.5t15 48.5t3.5 62v45q0 73 -72 165q-72 93 -72 141h-169v55z" />
<glyph unicode="&#x1cb0;" horiz-adv-x="541" d="M491 131q0 -75 -59 -118t-165 -43q-112 0 -169.5 50.5t-57.5 153.5h120q0 -34 6 -65.5t18.5 -55.5t33 -38.5t49.5 -14.5q60 0 82.5 32.5t22.5 89.5q0 135 -109 135l-92 -4v56l92 -9q93 0 93 67q0 73 -108 73l-83 -4v58l83 -9q103 0 103 65q0 33 -16 52.5t-51 19.5 q-36 0 -140 -26v75q104 -4 166.5 -12.5t95.5 -22t43.5 -33t10.5 -44.5q0 -57 -91 -91v-11q106 -22 106 -89q0 -57 -101 -89v-10q117 -33 117 -138z" />
<glyph unicode="&#x2000;" horiz-adv-x="377" />
<glyph unicode="&#x2001;" horiz-adv-x="755" />
<glyph unicode="&#x2002;" horiz-adv-x="377" />
<glyph unicode="&#x2003;" horiz-adv-x="755" />
<glyph unicode="&#x2004;" horiz-adv-x="251" />
<glyph unicode="&#x2005;" horiz-adv-x="188" />
<glyph unicode="&#x2006;" horiz-adv-x="125" />
<glyph unicode="&#x2007;" horiz-adv-x="125" />
<glyph unicode="&#x2008;" horiz-adv-x="94" />
<glyph unicode="&#x2009;" horiz-adv-x="151" />
<glyph unicode="&#x200a;" horiz-adv-x="41" />
<glyph unicode="&#x2010;" horiz-adv-x="333" d="M41 261h252v-73h-252v73z" />
<glyph unicode="&#x2011;" horiz-adv-x="333" d="M41 261h252v-73h-252v73z" />
<glyph unicode="&#x2012;" horiz-adv-x="603" d="M632 186h-632v51h632v-51z" />
<glyph unicode="&#x2013;" d="M508 148h-517v36h517v-36z" />
<glyph unicode="&#x2014;" horiz-adv-x="1000" d="M1009 148h-1018v36h1018v-36z" />
<glyph unicode="&#x2018;" horiz-adv-x="333" d="M217 604v-21q-45 -27 -63 -49t-18 -52t18 -30q6 0 18 4t17 4q20 0 35 -15t15 -37q0 -29 -20.5 -43t-43.5 -14q-17 0 -32 7.5t-27 20.5t-19 30.5t-7 38.5q0 48 29 90t98 66z" />
<glyph unicode="&#x2019;" horiz-adv-x="333" d="M116 351v23q45 26 63 47.5t18 52.5q0 30 -18 30q-6 0 -18 -4t-17 -4q-19 0 -34.5 15t-15.5 37q0 29 20.5 42.5t43.5 13.5q16 0 31.5 -7.5t27.5 -20t19 -30t7 -38.5q0 -48 -29 -89.5t-98 -67.5z" />
<glyph unicode="&#x201a;" horiz-adv-x="333" d="M99 -239v21q51 17 78 52t27 74q0 8 -3.5 14t-7.5 6q-3 0 -15.5 -7t-26.5 -7q-24 0 -38 14t-14 39q0 24 18 41t45 17q32 0 57 -28t25 -75q0 -51 -35 -93.5t-110 -67.5z" />
<glyph unicode="&#x201c;" horiz-adv-x="444" d="M198 721v-20q-43 -22 -61.5 -46.5t-18.5 -53.5q0 -17 5 -23.5t11 -6.5t17 3.5t19 3.5q20 0 35 -14.5t15 -36.5q0 -23 -18 -40t-45 -17q-17 0 -32 7.5t-27 21t-19 31t-7 38.5q0 49 32.5 91t93.5 62zM392 720v-19q-24 -14 -39.5 -26t-24.5 -24t-12.5 -25t-3.5 -28 q0 -27 16 -27q5 0 16 3.5t22 3.5q20 0 35 -14t15 -35q0 -24 -19 -42t-46 -18q-17 0 -32 7.5t-26.5 20.5t-18.5 31t-7 39q0 51 32.5 93t92.5 60z" />
<glyph unicode="&#x201d;" horiz-adv-x="444" d="M56 473v21q24 14 39.5 26t24.5 24t12.5 25t3.5 28q0 14 -5.5 20.5t-10.5 6.5t-16 -4t-21 -4q-21 0 -35.5 15t-14.5 36q0 23 18.5 40.5t45.5 17.5q16 0 31.5 -7.5t27.5 -20.5t19 -31t7 -39q0 -51 -33 -93.5t-93 -60.5zM255 473v21q42 22 61 46.5t19 53.5q0 30 -16 30 q-6 0 -17.5 -4t-18.5 -4q-20 0 -35 15.5t-15 36.5q0 23 18 40t44 17q17 0 32.5 -7.5t27.5 -21t19 -31t7 -38.5q0 -49 -32.5 -91.5t-93.5 -62.5z" />
<glyph unicode="&#x201e;" horiz-adv-x="444" d="M56 -152v21q24 14 39.5 26t24.5 24t12.5 25t3.5 28q0 14 -5.5 20.5t-10.5 6.5t-16 -4t-21 -4q-21 0 -35.5 15t-14.5 36q0 23 18.5 40.5t45.5 17.5q16 0 31.5 -7.5t27.5 -20.5t19 -31t7 -39q0 -51 -33 -93.5t-93 -60.5zM255 -152v21q42 22 61 46.5t19 53.5q0 30 -16 30 q-6 0 -17.5 -4t-18.5 -4q-20 0 -35 15.5t-15 36.5q0 23 18 40t44 17q17 0 32.5 -7.5t27.5 -21t19 -31t7 -38.5q0 -49 -32.5 -91.5t-93.5 -62.5z" />
<glyph unicode="&#x2020;" d="M256 -279h-18q-1 95 -3.5 169.5t-8 137t-15 116t-23.5 105.5q25 21 36 45t14 70q-19 -2 -40 -8t-40 -13t-34.5 -12t-24.5 -5q-22 0 -36 13t-14 33q0 21 14.5 35t36.5 14q11 0 22 -3l51 -22q15 -7 31.5 -10t33.5 -4q-2 20 -9 44t-15 47t-14.5 43.5t-6.5 32.5 q0 28 16.5 45.5t38.5 17.5q21 0 37 -18.5t16 -44.5q0 -9 -1.5 -17.5t-4.5 -18.5t-8 -23t-12 -32q-8 -21 -13 -40t-6 -36q22 2 43 7.5t37.5 11.5t27 11t12.5 5q10 3 22 3q24 0 38.5 -13.5t14.5 -34.5q0 -19 -14.5 -33t-36.5 -14q-9 0 -27.5 5.5t-39.5 12.5t-42 13.5t-35 7.5 q2 -45 13 -70t36 -45q-9 -35 -15.5 -62t-11.5 -55.5t-8 -62t-5.5 -80.5t-4.5 -112t-4 -156z" />
<glyph unicode="&#x2022;" horiz-adv-x="350" d="M177 380q25 0 47.5 -10t39 -26.5t26.5 -38.5t10 -47q0 -26 -10 -48t-26.5 -39t-39 -26.5t-47.5 -9.5q-26 0 -48 9.5t-38.5 26t-26 39t-9.5 48.5q0 25 9.5 47.5t26 39t38.5 26t48 9.5z" />
<glyph unicode="&#x2026;" horiz-adv-x="1000" d="M167 22q22 0 38 -16t16 -38q0 -23 -16 -39t-38 -16q-23 0 -39 16t-16 39q0 22 16 38t39 16zM500 22q22 0 38 -16t16 -38q0 -23 -16 -39t-38 -16t-38 16t-16 39q0 22 16 38t38 16zM833 22q23 0 39 -16t16 -38q0 -23 -16 -39t-39 -16q-22 0 -38 16t-16 39q0 22 16 38t38 16 z" />
<glyph unicode="&#x202f;" horiz-adv-x="151" />
<glyph unicode="&#x2039;" horiz-adv-x="333" d="M275 -77h-28l-189 231l189 229h28l-119 -229z" />
<glyph unicode="&#x203a;" horiz-adv-x="333" d="M56 383h28l193 -230l-193 -230h-28l119 230z" />
<glyph unicode="&#x205f;" horiz-adv-x="188" />
<glyph unicode="&#x20ac;" d="M414 287h-281q-1 -5 -1 -10.5v-10.5v-20h269l-11 -38h-257q2 -56 14 -102.5t32.5 -79.5t48.5 -51.5t63 -18.5q28 0 50 4.5t41.5 16.5t39.5 33.5t45 55.5l15 -10q-26 -40 -49.5 -67t-48 -43.5t-52 -23.5t-61.5 -7q-103 0 -163 76.5t-70 216.5h-49l11 38h36v24v8t1 9h-48 l11 38h41q9 62 31.5 113.5t56.5 88t78 56.5t97 20q84 0 166 -43v-146h-19q-13 157 -147 157q-69 0 -112.5 -64t-55.5 -182h289z" />
<glyph unicode="&#x25fc;" horiz-adv-x="450" d="M0 450h450v-450h-450v450z" />
</font>
</defs>
</svg>
