<?xml version="1.0" standalone="no"?>
<!DOCTYPE svg PUBLIC "-//W3C//DTD SVG 1.1//EN" "http://www.w3.org/Graphics/SVG/1.1/DTD/svg11.dtd" >
<svg xmlns="http://www.w3.org/2000/svg" xmlns:xlink="http://www.w3.org/1999/xlink" version="1.1">
<metadata></metadata>
<defs>
<font id="bpg_arialregular" horiz-adv-x="1551" >
<font-face units-per-em="2048" ascent="1638" descent="-410" />
<missing-glyph horiz-adv-x="574" />
<glyph unicode="&#x671;" horiz-adv-x="474" arabic-form="final" d="M-65 1616q0 67 77 67h24q119 160 236 160q83 0 83 -101q0 -53 -48 -98q-53 -48 -125 -48h-169q-31 0 -31 -46q0 -5 2 -18q1 -12 0 -18q-49 49 -49 102zM19 1335l124 196q40 -121 56 -290q10 -105 20 -497q18 -179 53 -230q28 -42 61 -42h142v-176h-142q-68 0 -110 55 q-36 49 -55 145t-29 236q-6 114 -12.5 234.5t-17 182.5t-28.5 101q-22 49 -62 85zM91 1683h83q90 0 90 60q0 39 -32 39q-55 0 -141 -99z" />
<glyph unicode="&#x67b;" horiz-adv-x="1475" arabic-form="final" d="M59 629q0 94 42 192q15 35 73 134l30 -19q-22 -46 -43 -93q-30 -71 -30 -128q0 -119 126 -185q112 -58 283 -58h856v27q0 113 -27.5 184t-92.5 122l77 165q45 -56 54 -70q69 -113 69 -329v-275h-964q-194 0 -309 68q-144 84 -144 265zM674 -5l77 146l163 -84l-74 -147z M722 -257l77 148l162 -87l-75 -147z" />
<glyph unicode="&#x67b;" horiz-adv-x="505" arabic-form="initial" d="M-71 296v176h502q0 119 -28 181q-19 44 -95 126l79 164q73 -92 91 -143q27 -78 27 -258v-246h-576zM108 -5l77 146l163 -84l-74 -147zM156 -257l77 148l162 -87l-75 -147z" />
<glyph unicode="&#x67b;" horiz-adv-x="505" arabic-form="medial" d="M-71 296v176h502q0 119 -28 181q-19 44 -95 126l79 164q73 -92 91 -143q27 -78 27 -258v-246h-576zM108 -5l77 146l163 -84l-74 -147zM156 -257l77 148l162 -87l-75 -147z" />
<glyph unicode="&#x67e;" horiz-adv-x="1475" arabic-form="final" d="M59 629q0 94 42 192q15 35 73 134l30 -19q-22 -46 -43 -93q-30 -71 -30 -128q0 -119 126 -185q112 -58 283 -58h856v27q0 113 -27.5 184t-92.5 122l77 165q45 -56 54 -70q69 -113 69 -329v-275h-964q-194 0 -309 68q-144 84 -144 265zM556 -96l78 145l164 -86l-76 -145z M754 -276l78 148l162 -87l-75 -148zM788 -5l77 146l163 -84l-75 -147z" />
<glyph unicode="&#x67e;" horiz-adv-x="505" arabic-form="initial" d="M-71 296v176h502q0 119 -28 181q-19 44 -95 126l79 164q73 -92 91 -143q27 -78 27 -258v-246h-576zM16 -96l79 145l164 -86l-76 -145zM215 -276l78 148l161 -87l-74 -148zM248 -5l77 146l164 -84l-75 -147z" />
<glyph unicode="&#x67e;" horiz-adv-x="505" arabic-form="medial" d="M-71 296v176h502q0 119 -28 181q-19 44 -95 126l79 164q73 -92 91 -143q27 -78 27 -258v-246h-576zM16 -96l79 145l164 -86l-76 -145zM215 -276l78 148l161 -87l-74 -148zM248 -5l77 146l164 -84l-75 -147z" />
<glyph unicode="&#x680;" horiz-adv-x="1475" arabic-form="final" d="M59 629q0 94 42 192q15 35 73 134l30 -19q-22 -46 -43 -93q-30 -71 -30 -128q0 -119 126 -185q112 -58 283 -58h856v27q0 113 -27.5 184t-92.5 122l77 165q45 -56 54 -70q69 -113 69 -329v-275h-964q-194 0 -309 68q-144 84 -144 265zM538 -94l71 146l168 -91l-77 -146z M584 -350l75 146l166 -85l-77 -146zM769 -6l75 147l165 -86l-78 -148zM815 -257l75 145l167 -86l-79 -145z" />
<glyph unicode="&#x680;" horiz-adv-x="505" arabic-form="initial" d="M-71 296v176h502q0 119 -28 181q-19 44 -95 126l79 164q73 -92 91 -143q27 -78 27 -258v-246h-576zM-7 -94l71 146l168 -91l-77 -146zM39 -350l75 146l166 -85l-77 -146zM224 -6l75 147l165 -86l-78 -148zM270 -257l75 145l167 -86l-79 -145z" />
<glyph unicode="&#x680;" horiz-adv-x="505" arabic-form="medial" d="M-71 296v176h502q0 119 -28 181q-19 44 -95 126l79 164q73 -92 91 -143q27 -78 27 -258v-246h-576zM-7 -94l71 146l168 -91l-77 -146zM39 -350l75 146l166 -85l-77 -146zM224 -6l75 147l165 -86l-78 -148zM270 -257l75 145l167 -86l-79 -145z" />
<glyph unicode="&#x67a;" horiz-adv-x="1475" arabic-form="final" d="M59 629q0 94 42 192q15 35 73 134l30 -19q-22 -46 -43 -93q-30 -71 -30 -128q0 -119 126 -185q112 -58 283 -58h856v27q0 113 -27.5 184t-92.5 122l77 165q45 -56 54 -70q69 -113 69 -329v-275h-964q-194 0 -309 68q-144 84 -144 265zM613 1409l77 146l163 -84l-74 -147z M661 1157l77 148l162 -87l-75 -147z" />
<glyph unicode="&#x67a;" horiz-adv-x="505" arabic-form="initial" d="M-71 296v176h502q0 119 -28 181q-19 44 -95 126l79 164q73 -92 91 -143q27 -78 27 -258v-246h-576zM69 1409l77 146l163 -84l-74 -147zM117 1157l77 148l162 -87l-75 -147z" />
<glyph unicode="&#x67a;" horiz-adv-x="505" arabic-form="medial" d="M-71 296v176h502q0 119 -28 181q-19 44 -95 126l79 164q73 -92 91 -143q27 -78 27 -258v-246h-576zM69 1409l77 146l163 -84l-74 -147zM117 1157l77 148l162 -87l-75 -147z" />
<glyph unicode="&#x67f;" horiz-adv-x="1475" arabic-form="final" d="M59 629q0 94 42 192q15 35 73 134l30 -19q-22 -46 -43 -93q-30 -71 -30 -128q0 -119 126 -185q112 -58 283 -58h856v27q0 113 -27.5 184t-92.5 122l77 165q45 -56 54 -70q69 -113 69 -329v-275h-964q-194 0 -309 68q-144 84 -144 265zM498 1320l71 146l168 -91l-77 -146z M544 1064l75 146l166 -85l-77 -146zM729 1408l75 147l165 -86l-78 -148zM775 1157l75 145l167 -86l-79 -145z" />
<glyph unicode="&#x67f;" horiz-adv-x="505" arabic-form="initial" d="M-71 296v176h502q0 119 -28 181q-19 44 -95 126l79 164q73 -92 91 -143q27 -78 27 -258v-246h-576zM-46 1320l71 146l168 -91l-77 -146zM0 1064l75 146l166 -85l-77 -146zM185 1408l75 147l165 -86l-78 -148zM231 1157l75 145l167 -86l-79 -145z" />
<glyph unicode="&#x67f;" horiz-adv-x="505" arabic-form="medial" d="M-71 296v176h502q0 119 -28 181q-19 44 -95 126l79 164q73 -92 91 -143q27 -78 27 -258v-246h-576zM-46 1320l71 146l168 -91l-77 -146zM0 1064l75 146l166 -85l-77 -146zM185 1408l75 147l165 -86l-78 -148zM231 1157l75 145l167 -86l-79 -145z" />
<glyph unicode="&#x679;" horiz-adv-x="1475" arabic-form="final" d="M59 629q0 94 42 192q15 35 73 134l30 -19q-22 -46 -43 -93q-30 -71 -30 -128q0 -119 126 -185q112 -58 283 -58h856v27q0 113 -27.5 184t-92.5 122l77 165q45 -56 54 -70q69 -113 69 -329v-275h-964q-194 0 -309 68q-144 84 -144 265zM455 1073v83h73q64 0 136 45 q19 46 19 92q0 49 -10 114q-8 49 -22 106q-7 30 -20 78l-29 14q8 66 27 108q8 -24 41 -37q20 -8 52 -12q-2 -31 -16 -95q-4 1 -18 4l-6 2q38 -129 38 -216q0 -32 -7 -75q-2 -13 -8 -47q82 48 108 60q73 34 121 34q128 0 128 -137v-121h-607zM663 1156h209q113 0 113 37 q0 50 -97 50q-64 0 -161 -50q-39 -20 -64 -37z" />
<glyph unicode="&#x679;" horiz-adv-x="505" arabic-form="initial" d="M-71 296v176h502q0 119 -28 181q-19 44 -95 126l79 164q73 -92 91 -143q27 -78 27 -258v-246h-576zM-50 1073v83h73q64 0 136 45q19 46 19 92q0 49 -10 114q-8 49 -22 106q-7 30 -20 78l-29 14q8 66 27 108q8 -24 41 -37q20 -8 52 -12q-2 -31 -16 -95q-4 1 -18 4l-6 2 q38 -129 38 -216q0 -32 -7 -75q-2 -13 -8 -47q82 48 108 60q73 34 121 34q128 0 128 -137v-121h-607zM158 1156h209q113 0 113 37q0 50 -97 50q-64 0 -161 -50q-39 -20 -64 -37z" />
<glyph unicode="&#x679;" horiz-adv-x="505" arabic-form="medial" d="M-71 296v176h502q0 119 -28 181q-19 44 -95 126l79 164q73 -92 91 -143q27 -78 27 -258v-246h-576zM-50 1073v83h73q64 0 136 45q19 46 19 92q0 49 -10 114q-8 49 -22 106q-7 30 -20 78l-29 14q8 66 27 108q8 -24 41 -37q20 -8 52 -12q-2 -31 -16 -95q-4 1 -18 4l-6 2 q38 -129 38 -216q0 -32 -7 -75q-2 -13 -8 -47q82 48 108 60q73 34 121 34q128 0 128 -137v-121h-607zM158 1156h209q113 0 113 37q0 50 -97 50q-64 0 -161 -50q-39 -20 -64 -37z" />
<glyph unicode="&#x6a4;" horiz-adv-x="1631" arabic-form="final" d="M39 640q0 90 52 210q37 82 55 123l41 -24q-44 -87 -58 -133t-14 -84q0 -133 145.5 -196.5t462.5 -63.5h745q-119 32 -174 74q-64 49 -64 121q0 94 63 201q71 120 156 120q100 0 145 -118q37 -99 37 -282v-292h-926q-213 0 -343 26q-156 32 -236 104q-87 79 -87 214z M1138 1176l75 147l166 -85l-77 -147zM1173 1448l74 147l165 -86l-78 -148zM1369 715q0 -49 41 -75q30 -18 116 -38q0 88 -19 135q-23 57 -71 57q-34 0 -50.5 -21t-16.5 -58zM1369 1270l75 145l167 -86l-79 -146z" />
<glyph unicode="&#x6a4;" horiz-adv-x="553" arabic-form="initial" d="M-71 296v176h539q0 90 -22 168q-52 -17 -80 -24q-47 -12 -82 -12q-74 0 -120 37q-54 43 -54 123q0 140 51 245q56 117 147 117q123 0 190 -193q55 -159 55 -374v-263h-624zM-12 1277l75 147l166 -85l-77 -147zM23 1549l74 147l165 -86l-78 -148zM200 869q0 -81 89 -81 q23 0 49.5 9t50.5 24q-14 36 -46 74q-42 50 -80 50q-28 0 -45.5 -22.5t-17.5 -53.5zM219 1371l75 145l167 -86l-79 -146z" />
<glyph unicode="&#x6a4;" horiz-adv-x="543" arabic-form="medial" d="M-71 296v176h347q62 0 106 4.5t96 19.5q-174 25 -226 47q-116 51 -116 172q0 106 56 200q63 106 152 106q103 0 157 -131q42 -104 42 -246v-348h-614zM8 1277l75 147l166 -85l-77 -147zM43 1549l74 147l165 -86l-78 -148zM239 770q0 -77 80 -103q28 -9 133 -19 q-23 81 -44 121q-41 75 -100 75q-28 0 -48.5 -22t-20.5 -52zM239 1371l75 145l167 -86l-79 -146z" />
<glyph unicode="&#x6a6;" horiz-adv-x="1631" arabic-form="final" d="M39 640q0 90 52 210q37 82 55 123l41 -24q-44 -87 -58 -133t-14 -84q0 -133 145.5 -196.5t462.5 -63.5h745q-119 32 -174 74q-64 49 -64 121q0 94 63 201q71 120 156 120q100 0 145 -118q37 -99 37 -282v-292h-926q-213 0 -343 26q-156 32 -236 104q-87 79 -87 214z M1104 1421l71 146l168 -91l-77 -146zM1150 1165l75 146l166 -85l-77 -146zM1335 1509l75 147l165 -86l-78 -148zM1369 715q0 -49 41 -75q30 -18 116 -38q0 88 -19 135q-23 57 -71 57q-34 0 -50.5 -21t-16.5 -58zM1381 1258l75 145l167 -86l-79 -145z" />
<glyph unicode="&#x6a6;" horiz-adv-x="553" arabic-form="initial" d="M-71 296v176h539q0 90 -22 168q-52 -17 -80 -24q-47 -12 -82 -12q-74 0 -120 37q-54 43 -54 123q0 140 51 245q56 117 147 117q123 0 190 -193q55 -159 55 -374v-263h-624zM-46 1502l71 146l168 -91l-77 -146zM0 1246l75 146l166 -85l-77 -146zM185 1590l75 147l165 -86 l-78 -148zM200 869q0 -81 89 -81q23 0 49.5 9t50.5 24q-14 36 -46 74q-42 50 -80 50q-28 0 -45.5 -22.5t-17.5 -53.5zM231 1339l75 145l167 -86l-79 -145z" />
<glyph unicode="&#x6a6;" horiz-adv-x="543" arabic-form="medial" d="M-71 296v176h347q62 0 106 4.5t96 19.5q-174 25 -226 47q-116 51 -116 172q0 106 56 200q63 106 152 106q103 0 157 -131q42 -104 42 -246v-348h-614zM-46 1502l71 146l168 -91l-77 -146zM0 1246l75 146l166 -85l-77 -146zM185 1590l75 147l165 -86l-78 -148zM231 1339 l75 145l167 -86l-79 -145zM239 770q0 -77 80 -103q28 -9 133 -19q-23 81 -44 121q-41 75 -100 75q-28 0 -48.5 -22t-20.5 -52z" />
<glyph unicode="&#x684;" horiz-adv-x="1087" arabic-form="final" d="M55 81q0 173 85 302q67 101 195 185q38 25 208 116q-40 5 -85 8.5t-81 3.5q-102 0 -166 -9q-21 -3 -132 -27q34 99 71 137q84 85 263 85q98 0 212 -19t192 -19q52 0 101 4t102 12l-40 -172q-42 -5 -94 -14q-34 -6 -92 -18l-2 -56q0 -83 50 -111q32 -17 107 -17h139v-176 h-139q-122 0 -173.5 45.5t-51.5 150.5q0 39 10 98q4 22 11 58q-172 -52 -260 -89q-162 -69 -251 -156q-112 -109 -112 -248q0 -218 226 -327q197 -95 527 -95h185l7 -11l-229 -160h-58q-218 0 -363 40q-173 49 -261 156q-101 122 -101 323zM391 237l77 146l163 -84l-74 -147 zM439 -15l77 148l162 -87l-75 -147z" />
<glyph unicode="&#x684;" horiz-adv-x="1095" arabic-form="initial" d="M-71 296v176h823q-103 79 -173 124q-88 55 -161 81q-82 28 -166 28q-51 0 -104 -7q30 75 77 120q69 66 174 66q103 0 243 -101q70 -51 228 -192q122 -110 165 -119h61v-176h-1167zM371 -5l77 146l163 -84l-74 -147zM419 -257l77 148l162 -87l-75 -147z" />
<glyph unicode="&#x684;" horiz-adv-x="1095" arabic-form="medial" d="M-71 296v176h823q-103 79 -173 124q-88 55 -161 81q-82 28 -166 28q-51 0 -104 -7q30 75 77 120q69 66 174 66q103 0 243 -101q70 -51 228 -192q122 -110 165 -119h61v-176h-1167zM371 -5l77 146l163 -84l-74 -147zM419 -257l77 148l162 -87l-75 -147z" />
<glyph unicode="&#x683;" horiz-adv-x="1087" arabic-form="final" d="M55 81q0 173 85 302q67 101 195 185q38 25 208 116q-40 5 -85 8.5t-81 3.5q-102 0 -166 -9q-21 -3 -132 -27q34 99 71 137q84 85 263 85q98 0 212 -19t192 -19q52 0 101 4t102 12l-40 -172q-42 -5 -94 -14q-34 -6 -92 -18l-2 -56q0 -83 50 -111q32 -17 107 -17h139v-176 h-139q-122 0 -173.5 45.5t-51.5 150.5q0 39 10 98q4 22 11 58q-172 -52 -260 -89q-162 -69 -251 -156q-112 -109 -112 -248q0 -218 226 -327q197 -95 527 -95h185l7 -11l-229 -160h-58q-218 0 -363 40q-173 49 -261 156q-101 122 -101 323zM258 86l79 145l164 -86l-76 -145z M490 177l77 146l164 -84l-75 -147z" />
<glyph unicode="&#x683;" horiz-adv-x="1095" arabic-form="initial" d="M-71 296v176h823q-103 79 -173 124q-88 55 -161 81q-82 28 -166 28q-51 0 -104 -7q30 75 77 120q69 66 174 66q103 0 243 -101q70 -51 228 -192q122 -110 165 -119h61v-176h-1167zM279 -96l79 145l164 -86l-76 -145zM511 -5l77 146l164 -84l-75 -147z" />
<glyph unicode="&#x683;" horiz-adv-x="1095" arabic-form="medial" d="M-71 296v176h823q-103 79 -173 124q-88 55 -161 81q-82 28 -166 28q-51 0 -104 -7q30 75 77 120q69 66 174 66q103 0 243 -101q70 -51 228 -192q122 -110 165 -119h61v-176h-1167zM279 -96l79 145l164 -86l-76 -145zM511 -5l77 146l164 -84l-75 -147z" />
<glyph unicode="&#x686;" horiz-adv-x="1087" arabic-form="final" d="M55 81q0 173 85 302q67 101 195 185q38 25 208 116q-40 5 -85 8.5t-81 3.5q-102 0 -166 -9q-21 -3 -132 -27q34 99 71 137q84 85 263 85q98 0 212 -19t192 -19q52 0 101 4t102 12l-40 -172q-42 -5 -94 -14q-34 -6 -92 -18l-2 -56q0 -83 50 -111q32 -17 107 -17h139v-176 h-139q-122 0 -173.5 45.5t-51.5 150.5q0 39 10 98q4 22 11 58q-172 -52 -260 -89q-162 -69 -251 -156q-112 -109 -112 -248q0 -218 226 -327q197 -95 527 -95h185l7 -11l-229 -160h-58q-218 0 -363 40q-173 49 -261 156q-101 122 -101 323zM255 98l78 145l164 -86l-76 -145z M453 -82l78 148l162 -87l-75 -148zM487 189l77 146l163 -85l-75 -146z" />
<glyph unicode="&#x686;" horiz-adv-x="1095" arabic-form="initial" d="M-71 296v176h823q-103 79 -173 124q-88 55 -161 81q-82 28 -166 28q-51 0 -104 -7q30 75 77 120q69 66 174 66q103 0 243 -101q70 -51 228 -192q122 -110 165 -119h61v-176h-1167zM240 -96l79 145l164 -86l-76 -145zM439 -276l78 148l162 -87l-75 -148zM473 -5l76 146 l164 -84l-75 -147z" />
<glyph unicode="&#x686;" horiz-adv-x="1095" arabic-form="medial" d="M-71 296v176h823q-103 79 -173 124q-88 55 -161 81q-82 28 -166 28q-51 0 -104 -7q30 75 77 120q69 66 174 66q103 0 243 -101q70 -51 228 -192q122 -110 165 -119h61v-176h-1167zM240 -96l79 145l164 -86l-76 -145zM439 -276l78 148l162 -87l-75 -148zM473 -5l76 146 l164 -84l-75 -147z" />
<glyph unicode="&#x687;" horiz-adv-x="1087" arabic-form="final" d="M55 81q0 173 85 302q67 101 195 185q38 25 208 116q-40 5 -85 8.5t-81 3.5q-102 0 -166 -9q-21 -3 -132 -27q34 99 71 137q84 85 263 85q98 0 212 -19t192 -19q52 0 101 4t102 12l-40 -172q-42 -5 -94 -14q-34 -6 -92 -18l-2 -56q0 -83 50 -111q32 -17 107 -17h139v-176 h-139q-122 0 -173.5 45.5t-51.5 150.5q0 39 10 98q4 22 11 58q-172 -52 -260 -89q-162 -69 -251 -156q-112 -109 -112 -248q0 -218 226 -327q197 -95 527 -95h185l7 -11l-229 -160h-58q-218 0 -363 40q-173 49 -261 156q-101 122 -101 323zM266 199l71 146l168 -91l-77 -146 zM312 -57l75 146l166 -85l-77 -146zM497 287l75 147l165 -86l-78 -148zM543 36l75 145l167 -86l-79 -145z" />
<glyph unicode="&#x687;" horiz-adv-x="1095" arabic-form="initial" d="M-71 296v176h823q-103 79 -173 124q-88 55 -161 81q-82 28 -166 28q-51 0 -104 -7q30 75 77 120q69 66 174 66q103 0 243 -101q70 -51 228 -192q122 -110 165 -119h61v-176h-1167zM276 -94l71 146l168 -91l-77 -146zM322 -350l75 146l166 -85l-77 -146zM507 -6l75 147 l165 -86l-78 -148zM553 -257l75 145l167 -86l-79 -145z" />
<glyph unicode="&#x687;" horiz-adv-x="1095" arabic-form="medial" d="M-71 296v176h823q-103 79 -173 124q-88 55 -161 81q-82 28 -166 28q-51 0 -104 -7q30 75 77 120q69 66 174 66q103 0 243 -101q70 -51 228 -192q122 -110 165 -119h61v-176h-1167zM276 -94l71 146l168 -91l-77 -146zM322 -350l75 146l166 -85l-77 -146zM507 -6l75 147 l165 -86l-78 -148zM553 -257l75 145l167 -86l-79 -145z" />
<glyph unicode="&#x68d;" horiz-adv-x="697" arabic-form="final" d="M96 408q0 38 4 69.5t15 68.5h23q11 -41 41 -59q24 -15 66 -15h391q0 180 -50 291q-63 137 -209 182l15 196q175 -86 247 -273q59 -152 59 -396v-176h-453q-57 0 -103 33.5t-46 78.5zM157 -96l79 145l164 -86l-76 -145zM389 -5l77 146l164 -84l-75 -147z" />
<glyph unicode="&#x68c;" horiz-adv-x="697" arabic-form="final" d="M96 408q0 38 4 69.5t15 68.5h23q11 -41 41 -59q24 -15 66 -15h391q0 180 -50 291q-63 137 -209 182l15 196q175 -86 247 -273q59 -152 59 -396v-176h-453q-57 0 -103 33.5t-46 78.5zM97 1318l79 145l164 -86l-76 -145zM329 1409l77 146l164 -84l-75 -147z" />
<glyph unicode="&#x68e;" horiz-adv-x="697" arabic-form="final" d="M96 408q0 38 4 69.5t15 68.5h23q11 -41 41 -59q24 -15 66 -15h391q0 180 -50 291q-63 137 -209 182l15 196q175 -86 247 -273q59 -152 59 -396v-176h-453q-57 0 -103 33.5t-46 78.5zM128 1338l75 147l166 -85l-77 -147zM163 1610l74 147l165 -86l-78 -148zM359 1432 l75 145l167 -86l-79 -146z" />
<glyph unicode="&#x688;" horiz-adv-x="697" arabic-form="final" d="M51 1203v83h73q64 0 136 45q19 46 19 92q0 49 -10 114q-8 49 -22 106q-7 30 -20 78l-29 14q8 66 27 108q8 -24 41 -37q20 -8 52 -12q-2 -31 -16 -95q-4 1 -18 4l-6 2q38 -129 38 -216q0 -32 -7 -75q-2 -13 -8 -47q82 48 108 60q73 34 121 34q128 0 128 -137v-121h-607z M96 408q0 38 4 69.5t15 68.5h23q11 -41 41 -59q24 -15 66 -15h391q0 180 -50 291q-63 137 -209 182l15 196q175 -86 247 -273q59 -152 59 -396v-176h-453q-57 0 -103 33.5t-46 78.5zM259 1286h209q113 0 113 37q0 50 -97 50q-64 0 -161 -50q-39 -20 -64 -37z" />
<glyph unicode="&#x698;" horiz-adv-x="1011" arabic-form="final" d="M75 -66l17 41q67 -13 139 -27t131 -14q129 0 269 83q128 76 217.5 191.5t89.5 208.5q0 80 -46 168q-38 70 -105 145l57 159q83 -77 123 -154q44 -87 44 -194v-245q0 -111 -95 -230q-83 -105 -206 -181q-117 -73 -193 -73q-70 0 -150 20q-62 15 -148 48q-73 27 -144 54z M512 1077l75 146l165 -85l-76 -146zM546 1348l75 148l165 -87l-78 -148zM742 1171l76 144l167 -86l-79 -145z" />
<glyph unicode="&#x691;" horiz-adv-x="1011" arabic-form="final" d="M75 -66l17 41q67 -13 139 -27t131 -14q129 0 269 83q128 76 217.5 191.5t89.5 208.5q0 80 -46 168q-38 70 -105 145l57 159q83 -77 123 -154q44 -87 44 -194v-245q0 -111 -95 -230q-83 -105 -206 -181q-117 -73 -193 -73q-70 0 -150 20q-62 15 -148 48q-73 27 -144 54z M354 1073v83h73q64 0 136 45q19 46 19 92q0 49 -10 114q-8 49 -22 106q-7 30 -20 78l-29 14q8 66 27 108q8 -24 41 -37q20 -8 52 -12q-2 -31 -16 -95q-4 1 -18 4l-6 2q38 -129 38 -216q0 -32 -7 -75q-2 -13 -8 -47q82 48 108 60q73 34 121 34q128 0 128 -137v-121h-607z M562 1156h209q113 0 113 37q0 50 -97 50q-64 0 -161 -50q-39 -20 -64 -37z" />
<glyph unicode="&#x6a9;" horiz-adv-x="1679" arabic-form="isolated" d="M20 564q0 88 48 202q13 31 55 116l35 -20q-35 -79 -45.5 -121.5t-10.5 -80.5q0 -111 116 -155q87 -33 255 -33h1089q-70 107 -161 186t-246 171l-33 -31l-119 91q-63 52 -63 82q0 173 85 272q79 91 272 164l285 111v-175l-211 -70q-127 -42 -204 -76q-99 -44 -99 -67 t64 -72l82 -60q154 -116 268 -244q123 -136 198 -282v-176h-1207q-242 0 -344 58q-109 61 -109 210z" />
<glyph unicode="&#x6a9;" horiz-adv-x="1929" arabic-form="final" d="M20 564q0 88 48 202q13 31 55 116l35 -20q-35 -79 -45.5 -121.5t-10.5 -80.5q0 -111 116 -155q87 -33 255 -33h430q161 0 270 41q130 50 130 139q0 68 -50 115q-25 24 -98 62l-33 -31l-119 91q-63 52 -63 82q0 173 85 272q79 91 272 164l285 111v-175l-211 -70 q-173 -59 -244 -94q-59 -31 -59 -49q0 -23 64 -72l82 -60q89 -68 161 -133q61 -57 115 -118q33 -37 107 -128q47 -57 93 -96q61 -51 107 -51h132v-176h-124q-83 0 -174 85q-44 41 -126 147q-50 64 -61 77q-25 30 -76 80q0 -180 -113 -281q-120 -108 -357 -108h-425 q-242 0 -344 58q-109 61 -109 210z" />
<glyph unicode="&#x6a9;" horiz-adv-x="815" arabic-form="initial" d="M-71 296v176h769q-71 107 -162 186t-245 171l-33 -31l-120 91q-62 52 -62 82q0 173 85 272q78 91 271 164l285 111v-175l-211 -70q-126 -42 -204 -76q-99 -44 -99 -67t65 -72q40 -30 81 -60q154 -116 268 -244q123 -136 198 -282v-176h-886z" />
<glyph unicode="&#x6a9;" horiz-adv-x="1064" arabic-form="medial" d="M-71 296v176h109q161 0 270 41q130 50 130 139q0 68 -49 115q-25 24 -98 62l-33 -31l-120 91q-62 52 -62 82q0 173 85 272q78 91 271 164l285 111v-175l-211 -70q-126 -42 -204 -76q-99 -44 -99 -67t65 -72q40 -30 81 -60q89 -68 161 -133q62 -57 115 -118 q34 -37 107 -128q48 -57 93 -96q62 -51 107 -51h133v-176h-125q-83 0 -173 85q-45 41 -127 147q-49 64 -60 77q-26 30 -77 80q0 -180 -112 -281q-120 -108 -358 -108h-104z" />
<glyph unicode="&#x6af;" horiz-adv-x="1929" arabic-form="final" d="M20 564q0 88 48 202q13 31 55 116l35 -20q-35 -79 -45.5 -121.5t-10.5 -80.5q0 -111 116 -155q87 -33 255 -33h430q161 0 270 41q130 50 130 139q0 68 -50 115q-25 24 -98 62l-33 -31l-119 91q-63 52 -63 82q0 173 85 272q79 91 272 164l285 111v-175l-211 -70 q-173 -59 -244 -94q-59 -31 -59 -49q0 -23 64 -72l82 -60q89 -68 161 -133q61 -57 115 -118q33 -37 107 -128q47 -57 93 -96q61 -51 107 -51h132v-176h-124q-83 0 -174 85q-44 41 -126 147q-50 64 -61 77q-25 30 -76 80q0 -180 -113 -281q-120 -108 -357 -108h-425 q-242 0 -344 58q-109 61 -109 210zM919 1311v107q32 36 129 100t233 134q151 80 301 142v-171q-218 -80 -404 -170q-165 -78 -259 -142z" />
<glyph unicode="&#x6af;" horiz-adv-x="815" arabic-form="initial" d="M-71 296v176h769q-71 107 -162 186t-245 171l-33 -31l-120 91q-62 52 -62 82q0 173 85 272q78 91 271 164l285 111v-175l-211 -70q-126 -42 -204 -76q-99 -44 -99 -67t65 -72q40 -30 81 -60q154 -116 268 -244q123 -136 198 -282v-176h-886zM55 1329v107q32 37 129 100.5 t232 134.5q152 79 301 141v-171q-218 -80 -404 -169q-165 -79 -258 -143z" />
<glyph unicode="&#x6af;" horiz-adv-x="1064" arabic-form="medial" d="M-71 296v176h109q161 0 270 41q130 50 130 139q0 68 -49 115q-25 24 -98 62l-33 -31l-120 91q-62 52 -62 82q0 173 85 272q78 91 271 164l285 111v-175l-211 -70q-126 -42 -204 -76q-99 -44 -99 -67t65 -72q40 -30 81 -60q89 -68 161 -133q62 -57 115 -118 q34 -37 107 -128q48 -57 93 -96q62 -51 107 -51h133v-176h-125q-83 0 -173 85q-45 41 -127 147q-49 64 -60 77q-26 30 -77 80q0 -180 -112 -281q-120 -108 -358 -108h-104zM55 1329v107q32 37 129 100.5t232 134.5q152 79 301 141v-171q-218 -80 -404 -169 q-165 -79 -258 -143z" />
<glyph unicode="&#x6b3;" horiz-adv-x="1929" arabic-form="final" d="M20 564q0 88 48 202q13 31 55 116l35 -20q-35 -79 -45.5 -121.5t-10.5 -80.5q0 -111 116 -155q87 -33 255 -33h430q161 0 270 41q130 50 130 139q0 68 -50 115q-25 24 -98 62l-33 -31l-119 91q-63 52 -63 82q0 173 85 272q79 91 272 164l285 111v-175l-211 -70 q-173 -59 -244 -94q-59 -31 -59 -49q0 -23 64 -72l82 -60q89 -68 161 -133q61 -57 115 -118q33 -37 107 -128q47 -57 93 -96q61 -51 107 -51h132v-176h-124q-83 0 -174 85q-44 41 -126 147q-50 64 -61 77q-25 30 -76 80q0 -180 -113 -281q-120 -108 -357 -108h-425 q-242 0 -344 58q-109 61 -109 210zM573 -5l77 146l163 -84l-74 -147zM621 -257l77 148l162 -87l-75 -147zM919 1311v107q32 36 129 100t233 134q151 80 301 142v-171q-218 -80 -404 -170q-165 -78 -259 -142z" />
<glyph unicode="&#x6b3;" horiz-adv-x="815" arabic-form="initial" d="M-71 296v176h769q-71 107 -162 186t-245 171l-33 -31l-120 91q-62 52 -62 82q0 173 85 272q78 91 271 164l285 111v-175l-211 -70q-126 -42 -204 -76q-99 -44 -99 -67t65 -72q40 -30 81 -60q154 -116 268 -244q123 -136 198 -282v-176h-886zM55 1329v107q32 37 129 100.5 t232 134.5q152 79 301 141v-171q-218 -80 -404 -169q-165 -79 -258 -143zM270 -5l77 146l163 -84l-74 -147zM318 -257l77 148l162 -87l-75 -147z" />
<glyph unicode="&#x6b3;" horiz-adv-x="1064" arabic-form="medial" d="M-71 296v176h109q161 0 270 41q130 50 130 139q0 68 -49 115q-25 24 -98 62l-33 -31l-120 91q-62 52 -62 82q0 173 85 272q78 91 271 164l285 111v-175l-211 -70q-126 -42 -204 -76q-99 -44 -99 -67t65 -72q40 -30 81 -60q89 -68 161 -133q62 -57 115 -118 q34 -37 107 -128q48 -57 93 -96q62 -51 107 -51h133v-176h-125q-83 0 -173 85q-45 41 -127 147q-49 64 -60 77q-26 30 -77 80q0 -180 -112 -281q-120 -108 -358 -108h-104zM55 1329v107q32 37 129 100.5t232 134.5q152 79 301 141v-171q-218 -80 -404 -169 q-165 -79 -258 -143zM108 -5l77 146l163 -84l-74 -147zM156 -257l77 148l162 -87l-75 -147z" />
<glyph unicode="&#x6b1;" horiz-adv-x="1929" arabic-form="final" d="M20 564q0 88 48 202q13 31 55 116l35 -20q-35 -79 -45.5 -121.5t-10.5 -80.5q0 -111 116 -155q87 -33 255 -33h430q161 0 270 41q130 50 130 139q0 68 -50 115q-25 24 -98 62l-33 -31l-119 91q-63 52 -63 82q0 173 85 272q79 91 272 164l285 111v-175l-211 -70 q-173 -59 -244 -94q-59 -31 -59 -49q0 -23 64 -72l82 -60q89 -68 161 -133q61 -57 115 -118q33 -37 107 -128q47 -57 93 -96q61 -51 107 -51h132v-176h-124q-83 0 -174 85q-44 41 -126 147q-50 64 -61 77q-25 30 -76 80q0 -180 -113 -281q-120 -108 -357 -108h-425 q-242 0 -344 58q-109 61 -109 210zM919 1311v107q32 36 129 100t233 134q151 80 301 142v-171q-218 -80 -404 -170q-165 -78 -259 -142zM936 1645l57 106l143 -44l-54 -106zM1148 1737l56 106l144 -44l-55 -106z" />
<glyph unicode="&#x6b1;" horiz-adv-x="815" arabic-form="initial" d="M-71 296v176h769q-71 107 -162 186t-245 171l-33 -31l-120 91q-62 52 -62 82q0 173 85 272q78 91 271 164l285 111v-175l-211 -70q-126 -42 -204 -76q-99 -44 -99 -67t65 -72q40 -30 81 -60q154 -116 268 -244q123 -136 198 -282v-176h-886zM47 1645l57 106l143 -44 l-54 -106zM55 1329v107q32 37 129 100.5t232 134.5q152 79 301 141v-171q-218 -80 -404 -169q-165 -79 -258 -143zM259 1737l56 106l144 -44l-55 -106z" />
<glyph unicode="&#x6b1;" horiz-adv-x="1064" arabic-form="medial" d="M-71 296v176h109q161 0 270 41q130 50 130 139q0 68 -49 115q-25 24 -98 62l-33 -31l-120 91q-62 52 -62 82q0 173 85 272q78 91 271 164l285 111v-175l-211 -70q-126 -42 -204 -76q-99 -44 -99 -67t65 -72q40 -30 81 -60q89 -68 161 -133q62 -57 115 -118 q34 -37 107 -128q48 -57 93 -96q62 -51 107 -51h133v-176h-125q-83 0 -173 85q-45 41 -127 147q-49 64 -60 77q-26 30 -77 80q0 -180 -112 -281q-120 -108 -358 -108h-104zM47 1645l57 106l143 -44l-54 -106zM55 1329v107q32 37 129 100.5t232 134.5q152 79 301 141v-171 q-218 -80 -404 -169q-165 -79 -258 -143zM259 1737l56 106l144 -44l-55 -106z" />
<glyph unicode="&#x6ba;" horiz-adv-x="1087" arabic-form="final" d="M70 160q0 86 21 175t57 179q23 55 77 168l41 -18q-71 -146 -94 -230t-23 -153q0 -125 89.5 -190.5t255.5 -65.5q191 0 338 68q183 84 183 234q0 103 -30 192q-27 79 -75 137l84 208q53 -82 73.5 -167t20.5 -225v-176q0 -225 -133 -331q-142 -114 -459 -114 q-202 0 -309 70q-117 78 -117 239z" />
<glyph unicode="&#x6bb;" horiz-adv-x="1087" arabic-form="final" d="M70 160q0 86 21 175t57 179q23 55 77 168l41 -18q-71 -146 -94 -230t-23 -153q0 -125 89.5 -190.5t255.5 -65.5q191 0 338 68q183 84 183 234q0 103 -30 192q-27 79 -75 137l84 208q53 -82 73.5 -167t20.5 -225v-176q0 -225 -133 -331q-142 -114 -459 -114 q-202 0 -309 70q-117 78 -117 239zM293 993v83h73q64 0 136 45q19 46 19 92q0 49 -10 114q-8 49 -22 106q-7 30 -20 78l-29 14q8 66 27 108q8 -24 41 -37q20 -8 52 -12q-2 -31 -16 -95q-4 1 -18 4l-6 2q38 -129 38 -216q0 -32 -7 -75q-2 -13 -8 -47q82 48 108 60 q73 34 121 34q128 0 128 -137v-121h-607zM501 1076h209q113 0 113 37q0 50 -97 50q-64 0 -161 -50q-39 -20 -64 -37z" />
<glyph unicode="&#x6c0;" horiz-adv-x="775" arabic-form="final" d="M-9 596q0 87 113 192.5t283 184.5q-2 8 -8.5 42t-6.5 42q0 35 23 77q19 35 50 71q11 -63 21.5 -121.5t24.5 -120.5l30 -174q25 -144 46 -212q31 -105 64 -105h145v-176h-145q-72 0 -128 124q-41 93 -67 240q-30 -57 -76.5 -88.5t-97.5 -31.5q-117 0 -194 16t-77 40z M148 1214q0 46 101 82q-31 16 -48 31q-21 19 -21 41q0 31 54 87q59 63 105 63q20 0 34.5 -13.5t14.5 -35.5q0 -15 -6 -29.5t-17 -32.5q-31 28 -68 28q-22 0 -43.5 -9t-21.5 -21q0 -15 47 -41.5t80 -26.5q22 0 31.5 1.5t40.5 13.5q0 -25 -32 -45q-21 -13 -63 -28zM181 703 q21 -9 49.5 -14t77.5 -5q61 0 115 63l-19 110q-88 -31 -138.5 -64.5t-84.5 -89.5z" />
<glyph unicode="&#x6c1;" horiz-adv-x="583" arabic-form="isolated" d="M55 393q0 71 35 164q32 78 66 158l-16 4l62 171q183 -96 218 -121q121 -85 121 -175q0 -143 -46 -214q-72 -111 -263 -111q-73 0 -122 29q-55 33 -55 95zM158 534q0 -51 28.5 -80t77.5 -29q56 0 122.5 32t66.5 58q0 38 -111 102q-47 27 -102 54q-45 -50 -54 -62 q-28 -39 -28 -75z" />
<glyph unicode="&#x6c1;" horiz-adv-x="505" arabic-form="initial" d="M-71 296v176h502q0 118 -28 181q-19 45 -95 126l79 164q73 -92 91 -143q27 -78 27 -258v-246h-576zM150 -110q0 146 142 246l22 -35q-95 -87 -95 -143q0 -29 71 -51.5t71 -91.5q0 -38 -27.5 -63.5t-65.5 -25.5q-57 0 -90 56q-28 47 -28 108z" />
<glyph unicode="&#x6c1;" horiz-adv-x="662" arabic-form="medial" d="M-71 296v176h91q210 0 312 283l53 -18q-61 -176 -61 -330q0 -114 22 -175q2 78 53 144q77 96 223 96h41v-176h-41q-105 0 -155 -36q-64 -47 -83 -142q-17 -82 -27 -82q-40 0 -71 108q-27 91 -32 183q-5 88 4 135q-81 -166 -238 -166h-91zM274 -261q0 147 141 247l22 -35 q-95 -87 -95 -144q0 -28 71 -51t71 -91q0 -39 -27.5 -64t-65.5 -25q-57 0 -90 55q-27 48 -27 108z" />
<glyph unicode="&#x6be;" horiz-adv-x="931" arabic-form="isolated" d="M-71 296v176h91q42 0 80 6.5t104 23.5q-26 19 -52 39q-29 26 -29 50q0 17 1.5 25t13.5 30l100 175q21 35 37.5 49t45.5 22q-70 47 -70 68q0 20 45 104q15 28 46 83q65 -61 163 -178q124 -148 196 -264q95 -154 95 -238q0 -59 -36 -131q-40 -77 -79 -77q-42 0 -155 52 q-104 49 -176 95q-117 -67 -170 -86q-68 -24 -160 -24h-91zM227 680q0 -42 123 -109q44 28 65 54q25 30 25 61q0 43 -18 68q-21 31 -67 31q-47 0 -87.5 -31t-40.5 -74zM462 507q60 -31 122 -62q50 -22 71 -22q13 0 21 9t8 22q0 36 -57 111q-35 47 -87 101q0 -50 -20.5 -93 t-57.5 -66z" />
<glyph unicode="&#x6d2;" horiz-adv-x="1679" arabic-form="final" d="M72 -367q-2 61 28 160q29 118 58 163q49 72 162 173q441 343 1121 343h239v-176h-245q-688 0 -1162 -368q-118 -107 -118 -152q0 -30 94 -30h1431v-9l-256 -166h-1181q-117 0 -142 14q-28 16 -29 48z" />
<glyph unicode="&#x6d3;" horiz-adv-x="1679" arabic-form="final" d="M72 -367q-2 61 28 160q29 118 58 163q49 72 162 173q441 343 1121 343h239v-176h-245q-688 0 -1162 -368q-118 -107 -118 -152q0 -30 94 -30h1431v-9l-256 -166h-1181q-117 0 -142 14q-28 16 -29 48zM1097 628q0 46 101 82q-31 16 -48 31q-21 19 -21 41q0 31 54 87 q59 63 105 63q20 0 34.5 -13.5t14.5 -35.5q0 -15 -6 -29.5t-17 -32.5q-31 28 -68 28q-22 0 -43.5 -9t-21.5 -21q0 -15 47 -41.5t80 -26.5q22 0 31.5 1.5t40.5 13.5q0 -25 -32 -45q-21 -13 -63 -28z" />
<glyph unicode="&#x6ad;" horiz-adv-x="1243" arabic-form="final" d="M45 564q0 88 48 202q13 31 55 116l35 -20q-35 -79 -45.5 -121.5t-10.5 -80.5q0 -111 116 -155q87 -33 255 -33h643l-126 856l-52 25q0 70 12 131t36 119l15 -11q0 -59 73 -88l109 -41q0 -46 -11.5 -103.5t-23.5 -89.5l-49 16l119 -792v-198h-745q-241 0 -343 58 q-110 61 -110 210zM323 736l17 22q25 0 59 -4q80 -7 99 -7q116 0 199.5 34t83.5 81q0 21 -17.5 36t-40.5 15q-26 0 -40 -1l-71 -5q-25 0 -43 13t-18 45q0 84 88.5 202.5t185.5 150.5l-19 -132q-70 -19 -107 -42q-61 -35 -61 -85q0 -17 16.5 -24.5t37.5 -7.5q18 0 32 2l55 7 q52 0 73.5 -27t21.5 -96q0 -110 -74 -170.5t-207 -60.5q-62 0 -136 17q-46 10 -134 37zM391 1399l75 147l166 -85l-77 -147zM426 1671l74 147l165 -86l-78 -148zM622 1493l75 145l167 -86l-79 -146z" />
<glyph unicode="&#x6ad;" horiz-adv-x="815" arabic-form="initial" d="M-71 296v176h769q-71 107 -162 186t-245 171l-33 -31l-120 91q-62 52 -62 82q0 173 85 272q78 91 271 164l285 111v-175l-211 -70q-126 -42 -204 -76q-99 -44 -99 -67t65 -72q40 -30 81 -60q154 -116 268 -244q123 -136 198 -282v-176h-886zM100 1527l54 97l134 -36 l-57 -97zM142 1666l55 97l134 -37l-58 -97zM319 1616l54 97l135 -36l-58 -97z" />
<glyph unicode="&#x6ad;" horiz-adv-x="815" arabic-form="medial" d="M-71 296v176h769q-71 107 -162 186t-245 171l-33 -31l-120 91q-62 52 -62 82q0 173 85 272q78 91 271 164l285 111v-175l-211 -70q-126 -42 -204 -76q-99 -44 -99 -67t65 -72q40 -30 81 -60q154 -116 268 -244q123 -136 198 -282v-176h-886zM100 1527l54 97l134 -36 l-57 -97zM142 1666l55 97l134 -37l-58 -97zM319 1616l54 97l135 -36l-58 -97z" />
<glyph unicode="&#x6c7;" horiz-adv-x="893" arabic-form="final" d="M50 -60l18 36q56 -13 118 -28t112 -15q123 0 233 63q86 49 172 143q43 48 123 155q-136 0 -204 43q-77 50 -77 163q0 104 49 193q56 103 143 103q88 0 127 -102q30 -80 30 -222v-115q0 -167 -123 -332q-138 -184 -318 -184q-66 0 -137 16q-51 11 -134 38q-66 23 -132 45z M497 936q53 26 125 82q65 52 98 91q-31 19 -48 40q-20 27 -20 58q0 67 39 118t84 51q27 0 48 -28.5t21 -68.5q0 -19 -5.5 -40t-25.5 -76q16 -15 33 -28q11 -11 11 -31q0 -17 -3 -35t-6 -37l-84 51q-50 -56 -68 -74q-75 -73 -126 -73h-73zM640 568q0 -50 44.5 -75.5 t145.5 -25.5q-22 97 -53 134q-28 32 -67 32q-28 0 -49 -18.5t-21 -46.5zM704 1271q0 -23 25 -47l44 -34q9 20 9 28q0 27 -19.5 50.5t-37.5 23.5q-10 0 -15.5 -7t-5.5 -14z" />
<glyph unicode="&#x6c6;" horiz-adv-x="893" arabic-form="final" d="M50 -60l18 36q56 -13 118 -28t112 -15q123 0 233 63q86 49 172 143q43 48 123 155q-136 0 -204 43q-77 50 -77 163q0 104 49 193q56 103 143 103q88 0 127 -102q30 -80 30 -222v-115q0 -167 -123 -332q-138 -184 -318 -184q-66 0 -137 16q-51 11 -134 38q-66 23 -132 45z M570 1212h88l77 -142l78 142h88l-137 -233h-57zM640 568q0 -50 44.5 -75.5t145.5 -25.5q-22 97 -53 134q-28 32 -67 32q-28 0 -49 -18.5t-21 -46.5z" />
<glyph unicode="&#x6c8;" horiz-adv-x="893" arabic-form="final" d="M50 -60l18 36q56 -13 118 -28t112 -15q123 0 233 63q86 49 172 143q43 48 123 155q-136 0 -204 43q-77 50 -77 163q0 104 49 193q56 103 143 103q88 0 127 -102q30 -80 30 -222v-115q0 -167 -123 -332q-138 -184 -318 -184q-66 0 -137 16q-51 11 -134 38q-66 23 -132 45z M638 1446q19 38 47 88q52 -338 52 -471q0 -55 -47 -130l-9 4q4 37 4 54q0 125 -47 455zM640 568q0 -50 44.5 -75.5t145.5 -25.5q-22 97 -53 134q-28 32 -67 32q-28 0 -49 -18.5t-21 -46.5z" />
<glyph unicode="&#x6cb;" horiz-adv-x="893" arabic-form="final" d="M50 -60l18 36q56 -13 118 -28t112 -15q123 0 233 63q86 49 172 143q43 48 123 155q-136 0 -204 43q-77 50 -77 163q0 104 49 193q56 103 143 103q88 0 127 -102q30 -80 30 -222v-115q0 -167 -123 -332q-138 -184 -318 -184q-66 0 -137 16q-51 11 -134 38q-66 23 -132 45z M431 1050l75 147l166 -85l-77 -147zM466 1322l74 147l165 -86l-78 -148zM640 568q0 -50 44.5 -75.5t145.5 -25.5q-22 97 -53 134q-28 32 -67 32q-28 0 -49 -18.5t-21 -46.5zM662 1144l75 145l167 -86l-79 -146z" />
<glyph unicode="&#x6c5;" horiz-adv-x="893" arabic-form="final" d="M50 -60l18 36l119 -28q67 -15 111 -15q124 0 233 63q83 47 162 133l11 12q-17 -3 -33 -3q-47 0 -140 26q-122 33 -133 33q-21 0 -52 -14l-11 13q49 76 108 76q22 0 143 -34q92 -25 122 -25q31 0 63 8q29 38 55 73q-281 0 -281 206q0 104 49 193q56 103 143 103 q157 0 157 -324v-115q0 -167 -123 -332q-138 -184 -318 -184q-66 0 -137 16q-58 12 -134 38zM640 568q0 -101 190 -101q-38 166 -120 166q-70 0 -70 -65z" />
<glyph unicode="&#x6c9;" horiz-adv-x="893" arabic-form="final" d="M50 -60l18 36q56 -13 118 -28t112 -15q123 0 233 63q86 49 172 143q43 48 123 155q-136 0 -204 43q-77 50 -77 163q0 104 49 193q56 103 143 103q88 0 127 -102q30 -80 30 -222v-115q0 -167 -123 -332q-138 -184 -318 -184q-66 0 -137 16q-51 11 -134 38q-66 23 -132 45z M570 979l137 233h57l137 -233h-88l-78 142l-77 -142h-88zM640 568q0 -50 44.5 -75.5t145.5 -25.5q-22 97 -53 134q-28 32 -67 32q-28 0 -49 -18.5t-21 -46.5z" />
<glyph unicode="&#x6d0;" horiz-adv-x="1217" arabic-form="final" d="M36 71q0 117 65 248q23 48 122 203l41 -20q-39 -66 -76 -130q-58 -111 -58 -182q0 -124 130 -189q123 -62 338 -62q144 0 254 23q136 27 136 74q0 18 -15.5 26.5t-50.5 8.5q-27 3 -85 6.5t-76 3.5q-64 0 -91.5 16.5t-27.5 49.5q0 126 74 205q61 65 163 96q76 24 161 24 h177v-176h-177q-155 0 -233.5 -8t-78.5 -32q0 -34 94 -34q42 0 66 -2t106 -11q48 -6 66 -15q30 -15 30 -53q0 -188 -124 -274q-136 -94 -448 -94q-217 0 -345 73q-137 79 -137 225zM502 -304l36 71l93 -25l-34 -70zM528 -413l36 71l93 -25l-34 -70z" />
<glyph unicode="&#x6d0;" horiz-adv-x="505" arabic-form="initial" d="M-71 296v176h502q0 119 -28 181q-19 44 -95 126l79 164q73 -92 91 -143q27 -78 27 -258v-246h-576zM108 -5l77 146l163 -84l-74 -147zM156 -257l77 148l162 -87l-75 -147z" />
<glyph unicode="&#x6d0;" horiz-adv-x="505" arabic-form="medial" d="M-71 296v176h502q0 119 -28 181q-19 44 -95 126l79 164q73 -92 91 -143q27 -78 27 -258v-246h-576zM108 -5l77 146l163 -84l-74 -147zM156 -257l77 148l162 -87l-75 -147z" />
<glyph unicode="&#x6cc;" horiz-adv-x="1320" arabic-form="isolated" d="M50 208q0 105 35 220q26 88 73 184q3 6 63 120l43 -17q-64 -113 -98 -211.5t-34 -174.5q0 -123 85.5 -184.5t244.5 -61.5q121 0 281 48q138 42 248 99.5t110 84.5q0 19 -12.5 25t-41.5 6h-236q-43 0 -76.5 31.5t-33.5 81.5q0 67 55 183q61 127 147 211q103 102 207 102 q67 0 105 -40t38 -107q0 -32 -6 -66t-8 -48q-35 45 -84 71.5t-100 26.5q-87 0 -184 -102q-89 -94 -89 -150q0 -19 21.5 -28.5t75.5 -9.5h81q72 0 107 -1.5t83.5 -9.5t48.5 -74q0 -253 -221 -386q-203 -121 -550 -121q-180 0 -274 70q-104 76 -104 228z" />
<glyph unicode="&#x6cc;" horiz-adv-x="1217" arabic-form="final" d="M36 71q0 117 65 248q23 48 122 203l41 -20q-39 -66 -76 -130q-58 -111 -58 -182q0 -124 130 -189q123 -62 338 -62q144 0 254 23q136 27 136 74q0 18 -15.5 26.5t-50.5 8.5q-27 3 -85 6.5t-76 3.5q-64 0 -91.5 16.5t-27.5 49.5q0 126 74 205q61 65 163 96q76 24 161 24 h177v-176h-177q-155 0 -233.5 -8t-78.5 -32q0 -34 94 -34q42 0 66 -2t106 -11q48 -6 66 -15q30 -15 30 -53q0 -188 -124 -274q-136 -94 -448 -94q-217 0 -345 73q-137 79 -137 225z" />
<glyph unicode="&#xfc5e;" horiz-adv-x="467" arabic-form="isolated" d="M48 1656q8 72 19 102q20 56 66 56q35 0 54 -34t19 -76q0 -17 -3.5 -35t-11.5 -51q70 20 134 67q-32 32 -41 44q-18 24 -18 52q0 47 37 93q46 55 97 56q29 -1 48.5 -20t14.5 -79q-4 -23 -11 -47t-29 -59q15 -12 24 -22.5t9 -23.5q0 -19 -2 -40.5t-6 -47.5l-86 67 q-47 -54 -105 -84q-72 -37 -160 -37l36 61q21 37 21 66q0 23 -10.5 42t-29.5 19q-21 0 -39 -24zM71 1358q0 27 7 52t20 59l21 8q0 -8 -2 -26.5t-2 -30.5q0 -22 9 -40t28 -18q43 0 69 57q12 25 30 102l22 6q8 -49 13 -60q12 -32 40 -32q39 0 61 51q18 41 18 86l21 6 q4 -20 7.5 -44.5t3.5 -42.5q0 -76 -26 -124q-29 -55 -81 -55q-18 0 -33 6t-34 19q-21 -34 -40 -53q-32 -33 -67 -33q-43 0 -64 28.5t-21 78.5zM329 1837q0 -18 18 -38q5 -6 36 -34q13 18 13 39q0 24 -11.5 43t-23.5 19q-20 0 -26 -8.5t-6 -20.5z" />
<glyph unicode="&#xfc5f;" horiz-adv-x="437" arabic-form="isolated" d="M71 1652q0 26 8 55q5 18 19 54l21 9q0 -9 -2 -27t-2 -30q0 -23 8.5 -40t28.5 -17q43 0 69 57q13 27 30 101l22 6q9 -49 13 -61q12 -32 40 -32q39 0 61 51q18 41 18 86l21 8q4 -25 7.5 -47t3.5 -40q0 -77 -26 -126q-29 -53 -81 -53q-17 0 -33.5 6.5t-33.5 18.5 q-20 -34 -40 -53q-32 -32 -67 -32q-43 0 -64 28.5t-21 77.5zM77 1251q0 44 43 85q85 36 302 126q0 -47 -51 -92q-91 -37 -294 -119zM77 1378q0 44 43 85q85 35 302 124q0 -47 -52 -91q-90 -36 -293 -118z" />
<glyph unicode="&#xfc60;" horiz-adv-x="437" arabic-form="isolated" d="M71 1358q0 27 8 56q5 18 19 55l21 8q0 -8 -2 -26.5t-2 -30.5q0 -22 9 -40t28 -18q43 0 69 57q12 25 30 102l22 6q8 -49 13 -60q12 -32 40 -32q39 0 61 51q18 41 18 86l21 6q4 -20 7.5 -44.5t3.5 -42.5q0 -76 -26 -124q-29 -55 -81 -55q-17 0 -33.5 6.5t-33.5 18.5 q-21 -34 -40 -53q-32 -33 -67 -33q-43 0 -64 28.5t-21 78.5zM77 1529q0 43 45 84q83 34 300 125q0 -46 -52 -93q-90 -35 -293 -116z" />
<glyph unicode="&#xfc61;" horiz-adv-x="437" arabic-form="isolated" d="M65 1537q76 35 108 50q48 23 107 56q-23 22 -35 38q-17 23 -17 46q0 44 36 86.5t81 42.5q30 0 53.5 -20.5t23.5 -49.5q0 -22 -10 -45q-3 -7 -23 -42q32 -15 38 -26q10 -18 10 -72q-35 0 -74 9q-8 2 -44 12q-57 -49 -81 -64q-60 -38 -117 -38q-14 0 -27.5 4.5t-28.5 12.5z M71 1360q0 27 8 56q5 18 19 55l21 8q0 -8 -2 -26.5t-2 -30.5q0 -22 9 -39.5t28 -17.5q43 0 69 56q12 25 30 101l22 7q9 -50 13 -61q12 -32 40 -32q39 0 61 51q18 41 18 87l21 6q4 -21 7.5 -45.5t3.5 -41.5q0 -76 -26 -124q-29 -55 -81 -55q-17 0 -33.5 6.5t-33.5 18.5 q-21 -34 -40 -53q-32 -33 -67 -33q-43 0 -64 28.5t-21 78.5zM290 1793q0 -21 10 -36t45 -34q3 7 7 16t4 15q0 22 -15.5 42t-37.5 20q-7 0 -10 -7t-3 -16z" />
<glyph unicode="&#xfc62;" horiz-adv-x="437" arabic-form="isolated" d="M71 1547q0 26 8 55q5 18 19 53l21 9q0 -9 -2 -27t-2 -30q0 -22 9 -39t28 -17q43 0 69 56q12 26 30 101l22 6q8 -50 13 -61q12 -31 40 -31q39 0 61 51q18 41 18 85l21 6q4 -19 7.5 -43.5t3.5 -42.5q0 -76 -26 -124q-29 -53 -81 -53q-18 0 -33 6t-34 19q-21 -34 -40 -53 q-32 -33 -67 -33q-43 0 -64 28.5t-21 78.5zM77 1251q0 44 44 84q84 36 301 126q0 -47 -51 -92q-91 -37 -294 -118z" />
<glyph unicode="&#xfdf2;" horiz-adv-x="1274" arabic-form="isolated" d="M21 356q0 84 115 191.5t281 184.5q-4 15 -9.5 41.5t-5.5 41.5q0 34 23 77q19 34 52 73q13 -83 27 -166q21 -124 43 -231q13 -56 46.5 -80t91.5 -24q46 0 72 12.5t65 72.5l-59 276q-8 32 -11 53q-7 39 -7 56q0 36 24 78q19 34 51 72q9 -52 20.5 -112t35.5 -175l36 -174 q16 -74 49 -112q39 -46 106 -46q28 0 45.5 22.5t22.5 61.5l-58 276q-7 43 -9 53q-8 41 -8 56q0 35 24 78q20 37 49 72q4 -26 35 -162q36 -166 52 -250q27 -144 27 -193q0 -38 -5 -69q-8 -50 -28 -89l-13 -25q-120 0 -197 35q-62 29 -108 88q-41 -69 -97 -98 q-49 -25 -112 -25q-66 0 -128 38.5t-84 98.5q-41 -59 -97.5 -98t-109.5 -39q-113 0 -180 16.5t-67 43.5zM211 462q22 -10 50 -15t78 -5q29 0 59 17t55 46l-19 112q-89 -32 -135 -64q-53 -35 -88 -91zM588 1186q0 18 4 40.5t6 34.5l30 13q0 -49 15 -66.5t47 -17.5q21 0 45 43 t30 83l23 6q11 -40 17 -47q14 -20 52 -20q28 0 47 42q12 27 20 65l25 7q5 -21 5 -41q0 -73 -26.5 -127t-67.5 -54q-24 0 -42.5 5.5t-41.5 19.5q-12 -31 -38 -55q-32 -31 -65 -31q-43 0 -64 27t-21 73zM607 1541q9 43 46 43q38 0 59 -37q31 -57 36 -69q18 -43 25 -103l-22 -8 q-25 61 -76 115q-13 14 -68 59z" />
<glyph unicode="&#x621;" horiz-adv-x="853" arabic-form="isolated" d="M122 454q0 33 41 118q48 101 111 168q81 87 162 87q76 0 126 -43q11 -9 51 -56l-52 -132q-38 25 -45 30q-62 40 -101 40q-48 0 -100.5 -27.5t-52.5 -61.5q0 -42 60 -80q48 -29 144 -64q140 68 285 109l-48 -165q-154 -39 -253 -86q-114 -55 -208 -143l-31 18q13 46 35 85 q20 35 45 62l-117 67q-52 34 -52 74z" />
<glyph unicode="&#x622;" horiz-adv-x="428" arabic-form="isolated" d="M14 1644q25 37 36 46q24 20 62 20q9 0 110 -32q51 -17 84 -17q54 0 106 24l14 -14q-28 -33 -57 -50q-42 -24 -90 -24q-51 0 -96 15q-100 33 -106 33q-12 0 -24.5 -3.5t-27.5 -10.5zM148 1338q21 45 46.5 96.5t48.5 96.5q17 -115 41.5 -315t38.5 -361q18 -200 18 -302 q0 -80 -29 -156q-15 -40 -66 -128l-18 10q3 29 5.5 67.5t2.5 51.5q0 105 -16.5 293.5t-39.5 393.5q-14 124 -32 253z" />
<glyph unicode="&#x622;" horiz-adv-x="474" arabic-form="final" d="M-36 1644q25 37 36 46q23 20 62 20q9 0 110 -32q50 -17 84 -17q53 0 106 24l14 -14q-29 -33 -58 -50q-41 -24 -90 -24q-50 0 -96 15q-100 33 -106 33q-12 0 -24 -3.5t-27 -10.5zM19 1335l124 196q40 -121 56 -290q10 -105 20 -497q18 -179 53 -230q28 -42 61 -42h142 v-176h-142q-68 0 -110 55q-36 49 -55 145t-29 236q-6 114 -12.5 234.5t-17 182.5t-28.5 101q-22 49 -62 85z" />
<glyph unicode="&#x623;" horiz-adv-x="474" arabic-form="final" d="M16 1516q0 46 101 82q-31 16 -47 31q-22 19 -22 41q0 31 54 87q60 63 105 63q20 0 35 -13.5t15 -35.5q0 -15 -6.5 -29.5t-17.5 -32.5q-31 28 -67 28q-23 0 -44.5 -9t-21.5 -21q0 -15 47 -41.5t80 -26.5q22 0 32 1.5t40 13.5q0 -25 -31 -45q-22 -13 -64 -28zM19 1335 l124 196q40 -121 56 -290q10 -105 20 -497q18 -179 53 -230q28 -42 61 -42h142v-176h-142q-68 0 -110 55q-36 49 -55 145t-29 236q-6 114 -12.5 234.5t-17 182.5t-28.5 101q-22 49 -62 85z" />
<glyph unicode="&#x624;" horiz-adv-x="893" arabic-form="final" d="M50 -60l18 36q56 -13 118 -28t112 -15q123 0 233 63q86 49 172 143q43 48 123 155q-136 0 -204 43q-77 50 -77 163q0 104 49 193q56 103 143 103q88 0 127 -102q30 -80 30 -222v-115q0 -167 -123 -332q-138 -184 -318 -184q-66 0 -137 16q-51 11 -134 38q-66 23 -132 45z M369 844q0 47 101 82q-32 16 -48 31q-21 20 -21 41q0 31 53 88q60 62 106 62q20 0 34.5 -13.5t14.5 -35.5q0 -14 -6 -29t-17 -33q-32 29 -68 29q-22 0 -44 -9.5t-22 -21.5q0 -15 47 -41t81 -26q22 0 31.5 1.5t39.5 13.5q0 -26 -31 -46q-21 -13 -63 -28zM640 568 q0 -50 44.5 -75.5t145.5 -25.5q-22 97 -53 134q-28 32 -67 32q-28 0 -49 -18.5t-21 -46.5z" />
<glyph unicode="&#x625;" horiz-adv-x="474" arabic-form="final" d="M19 1335l124 196q40 -121 56 -290q10 -105 20 -497q18 -179 53 -230q28 -42 61 -42h142v-176h-142q-68 0 -110 55q-36 49 -55 145t-29 236q-6 114 -12.5 234.5t-17 182.5t-28.5 101q-22 49 -62 85zM25 -194q0 47 101 82q-31 16 -47 31q-21 19 -21 41q0 31 53 87 q60 63 105 63q20 0 35 -13.5t15 -35.5q0 -15 -6 -29.5t-18 -32.5q-31 28 -67 28q-22 0 -44 -9t-22 -21q0 -15 47 -41.5t80 -26.5q23 0 32.5 1.5t39.5 13.5q0 -25 -31 -45q-21 -13 -64 -28z" />
<glyph unicode="&#x626;" horiz-adv-x="1217" arabic-form="final" d="M36 71q0 117 65 248q23 48 122 203l41 -20q-39 -66 -76 -130q-58 -111 -58 -182q0 -124 130 -189q123 -62 338 -62q144 0 254 23q136 27 136 74q0 18 -15.5 26.5t-50.5 8.5q-27 3 -85 6.5t-76 3.5q-64 0 -91.5 16.5t-27.5 49.5q0 126 74 205q61 65 163 96q76 24 161 24 h177v-176h-177q-155 0 -233.5 -8t-78.5 -32q0 -34 94 -34q42 0 66 -2t106 -11q48 -6 66 -15q30 -15 30 -53q0 -188 -124 -274q-136 -94 -448 -94q-217 0 -345 73q-137 79 -137 225zM73 712q0 47 101 82q-32 16 -48 31q-21 19 -21 41q0 31 54 87q59 63 105 63 q20 0 34.5 -13.5t14.5 -35.5q0 -15 -6 -29.5t-17 -32.5q-31 28 -68 28q-22 0 -43.5 -9t-21.5 -21q0 -15 46.5 -41.5t80.5 -26.5q22 0 31.5 1.5t40.5 13.5q0 -25 -32 -45q-21 -13 -63 -28z" />
<glyph unicode="&#x626;" horiz-adv-x="505" arabic-form="initial" d="M-71 296v176h502q0 119 -28 181q-19 44 -95 126l79 164q73 -92 91 -143q27 -78 27 -258v-246h-576zM113 1079q0 46 101 81q-31 17 -47 32q-22 19 -22 40q0 32 54 88q60 63 105 63q20 0 35 -14t15 -36q0 -14 -6.5 -28.5t-17.5 -32.5q-31 28 -67 28q-23 0 -44.5 -9 t-21.5 -21q0 -16 47 -42t80 -26q22 0 32 1.5t40 13.5q0 -25 -31 -45q-22 -14 -64 -29z" />
<glyph unicode="&#x626;" horiz-adv-x="505" arabic-form="medial" d="M-71 296v176h502q0 119 -28 181q-19 44 -95 126l79 164q73 -92 91 -143q27 -78 27 -258v-246h-576zM113 1079q0 46 101 81q-31 17 -47 32q-22 19 -22 40q0 32 54 88q60 63 105 63q20 0 35 -14t15 -36q0 -14 -6.5 -28.5t-17.5 -32.5q-31 28 -67 28q-23 0 -44.5 -9 t-21.5 -21q0 -16 47 -42t80 -26q22 0 32 1.5t40 13.5q0 -25 -31 -45q-22 -14 -64 -29z" />
<glyph unicode="&#x627;" horiz-adv-x="474" arabic-form="final" d="M19 1335l124 196q40 -121 56 -290q10 -105 20 -497q18 -179 53 -230q28 -42 61 -42h142v-176h-142q-68 0 -110 55q-36 49 -55 145t-29 236q-6 114 -12.5 234.5t-17 182.5t-28.5 101q-22 49 -62 85z" />
<glyph unicode="&#x628;" horiz-adv-x="1475" arabic-form="final" d="M59 629q0 94 42 192q15 35 73 134l30 -19q-22 -46 -43 -93q-30 -71 -30 -128q0 -119 126 -185q112 -58 283 -58h856v27q0 113 -27.5 184t-92.5 122l77 165q45 -56 54 -70q69 -113 69 -329v-275h-964q-194 0 -309 68q-144 84 -144 265zM654 -11l75 147l168 -86l-79 -146z " />
<glyph unicode="&#x628;" horiz-adv-x="505" arabic-form="initial" d="M-71 296v176h502q0 119 -28 181q-19 44 -95 126l79 164q73 -92 91 -143q27 -78 27 -258v-246h-576zM160 -11l74 147l168 -86l-79 -146z" />
<glyph unicode="&#x628;" horiz-adv-x="505" arabic-form="medial" d="M-71 296v176h502q0 119 -28 181q-19 44 -95 126l79 164q73 -92 91 -143q27 -78 27 -258v-246h-576zM160 -11l74 147l168 -86l-79 -146z" />
<glyph unicode="&#x629;" horiz-adv-x="775" arabic-form="final" d="M-9 596q0 87 113 192.5t283 184.5q-2 8 -8.5 42t-6.5 42q0 35 23 77q19 35 50 71q11 -63 21.5 -121.5t24.5 -120.5l30 -174q25 -144 46 -212q31 -105 64 -105h145v-176h-145q-72 0 -128 124q-41 93 -67 240q-30 -57 -76.5 -88.5t-97.5 -31.5q-117 0 -194 16t-77 40z M47 1350l75 147l166 -85l-77 -146zM181 703q21 -9 49.5 -14t77.5 -5q61 0 115 63l-19 110q-88 -31 -138.5 -64.5t-84.5 -89.5zM278 1444l76 145l166 -86l-79 -146z" />
<glyph unicode="&#x62a;" horiz-adv-x="1475" arabic-form="final" d="M59 629q0 94 42 192q15 35 73 134l30 -19q-22 -46 -43 -93q-30 -71 -30 -128q0 -119 126 -185q112 -58 283 -58h856v27q0 113 -27.5 184t-92.5 122l77 165q45 -56 54 -70q69 -113 69 -329v-275h-964q-194 0 -309 68q-144 84 -144 265zM528 1060l75 147l166 -85l-77 -146z M759 1154l75 145l167 -86l-79 -145z" />
<glyph unicode="&#x62a;" horiz-adv-x="505" arabic-form="initial" d="M-71 296v176h502q0 119 -28 181q-19 44 -95 126l79 164q73 -92 91 -143q27 -78 27 -258v-246h-576zM27 1141l75 147l166 -85l-77 -147zM258 1235l75 145l167 -86l-79 -146z" />
<glyph unicode="&#x62a;" horiz-adv-x="505" arabic-form="medial" d="M-71 296v176h502q0 119 -28 181q-19 44 -95 126l79 164q73 -92 91 -143q27 -78 27 -258v-246h-576zM27 1141l75 147l166 -85l-77 -147zM258 1235l75 145l167 -86l-79 -146z" />
<glyph unicode="&#x62b;" horiz-adv-x="1475" arabic-form="final" d="M59 629q0 94 42 192q15 35 73 134l30 -19q-22 -46 -43 -93q-30 -71 -30 -128q0 -119 126 -185q112 -58 283 -58h856v27q0 113 -27.5 184t-92.5 122l77 165q45 -56 54 -70q69 -113 69 -329v-275h-964q-194 0 -309 68q-144 84 -144 265zM528 1060l75 147l166 -85l-77 -146z M563 1332l74 148l165 -87l-78 -148zM759 1154l75 145l167 -86l-79 -145z" />
<glyph unicode="&#x62b;" horiz-adv-x="505" arabic-form="initial" d="M-71 296v176h502q0 119 -28 181q-19 44 -95 126l79 164q73 -92 91 -143q27 -78 27 -258v-246h-576zM27 1141l75 147l166 -85l-77 -147zM62 1413l74 147l165 -86l-78 -148zM258 1235l75 145l167 -86l-79 -146z" />
<glyph unicode="&#x62b;" horiz-adv-x="505" arabic-form="medial" d="M-71 296v176h502q0 119 -28 181q-19 44 -95 126l79 164q73 -92 91 -143q27 -78 27 -258v-246h-576zM27 1141l75 147l166 -85l-77 -147zM62 1413l74 147l165 -86l-78 -148zM258 1235l75 145l167 -86l-79 -146z" />
<glyph unicode="&#x62c;" horiz-adv-x="1087" arabic-form="final" d="M55 81q0 173 85 302q67 101 195 185q38 25 208 116q-40 5 -85 8.5t-81 3.5q-102 0 -166 -9q-21 -3 -132 -27q34 99 71 137q84 85 263 85q98 0 212 -19t192 -19q52 0 101 4t102 12l-40 -172q-42 -5 -94 -14q-34 -6 -92 -18l-2 -56q0 -83 50 -111q32 -17 107 -17h139v-176 h-139q-122 0 -173.5 45.5t-51.5 150.5q0 39 10 98q4 22 11 58q-172 -52 -260 -89q-162 -69 -251 -156q-112 -109 -112 -248q0 -218 226 -327q197 -95 527 -95h185l7 -11l-229 -160h-58q-218 0 -363 40q-173 49 -261 156q-101 122 -101 323zM470 125l77 148l163 -86l-78 -148 z" />
<glyph unicode="&#x62c;" horiz-adv-x="1095" arabic-form="initial" d="M-71 296v176h823q-103 79 -173 124q-88 55 -161 81q-82 28 -166 28q-51 0 -104 -7q30 75 77 120q69 66 174 66q103 0 243 -101q70 -51 228 -192q122 -110 165 -119h61v-176h-1167zM341 16l79 148l162 -87l-76 -146z" />
<glyph unicode="&#x62c;" horiz-adv-x="1095" arabic-form="medial" d="M-71 296v176h823q-103 79 -173 124q-88 55 -161 81q-82 28 -166 28q-51 0 -104 -7q30 75 77 120q69 66 174 66q103 0 243 -101q70 -51 228 -192q122 -110 165 -119h61v-176h-1167zM341 16l79 148l162 -87l-76 -146z" />
<glyph unicode="&#x62d;" horiz-adv-x="1087" arabic-form="final" d="M55 81q0 173 85 302q67 101 195 185q38 25 208 116q-40 5 -85 8.5t-81 3.5q-102 0 -166 -9q-21 -3 -132 -27q34 99 71 137q84 85 263 85q98 0 212 -19t192 -19q52 0 101 4t102 12l-40 -172q-42 -5 -94 -14q-34 -6 -92 -18l-2 -56q0 -83 50 -111q32 -17 107 -17h139v-176 h-139q-122 0 -173.5 45.5t-51.5 150.5q0 39 10 98q4 22 11 58q-172 -52 -260 -89q-162 -69 -251 -156q-112 -109 -112 -248q0 -218 226 -327q197 -95 527 -95h185l7 -11l-229 -160h-58q-218 0 -363 40q-173 49 -261 156q-101 122 -101 323z" />
<glyph unicode="&#x62d;" horiz-adv-x="1095" arabic-form="initial" d="M-71 296v176h823q-103 79 -173 124q-88 55 -161 81q-82 28 -166 28q-51 0 -104 -7q30 75 77 120q69 66 174 66q103 0 243 -101q70 -51 228 -192q122 -110 165 -119h61v-176h-1167z" />
<glyph unicode="&#x62d;" horiz-adv-x="1095" arabic-form="medial" d="M-71 296v176h823q-103 79 -173 124q-88 55 -161 81q-82 28 -166 28q-51 0 -104 -7q30 75 77 120q69 66 174 66q103 0 243 -101q70 -51 228 -192q122 -110 165 -119h61v-176h-1167z" />
<glyph unicode="&#x62e;" horiz-adv-x="1087" arabic-form="final" d="M55 81q0 173 85 302q67 101 195 185q38 25 208 116q-40 5 -85 8.5t-81 3.5q-102 0 -166 -9q-21 -3 -132 -27q34 99 71 137q84 85 263 85q98 0 212 -19t192 -19q52 0 101 4t102 12l-40 -172q-42 -5 -94 -14q-34 -6 -92 -18l-2 -56q0 -83 50 -111q32 -17 107 -17h139v-176 h-139q-122 0 -173.5 45.5t-51.5 150.5q0 39 10 98q4 22 11 58q-172 -52 -260 -89q-162 -69 -251 -156q-112 -109 -112 -248q0 -218 226 -327q197 -95 527 -95h185l7 -11l-229 -160h-58q-218 0 -363 40q-173 49 -261 156q-101 122 -101 323zM446 1175l76 147l165 -86 l-78 -146z" />
<glyph unicode="&#x62e;" horiz-adv-x="1095" arabic-form="initial" d="M-71 296v176h823q-103 79 -173 124q-88 55 -161 81q-82 28 -166 28q-51 0 -104 -7q30 75 77 120q69 66 174 66q103 0 243 -101q70 -51 228 -192q122 -110 165 -119h61v-176h-1167zM372 1175l74 147l166 -86l-77 -146z" />
<glyph unicode="&#x62e;" horiz-adv-x="1095" arabic-form="medial" d="M-71 296v176h823q-103 79 -173 124q-88 55 -161 81q-82 28 -166 28q-51 0 -104 -7q30 75 77 120q69 66 174 66q103 0 243 -101q70 -51 228 -192q122 -110 165 -119h61v-176h-1167zM372 1175l74 147l166 -86l-77 -146z" />
<glyph unicode="&#x62f;" horiz-adv-x="697" arabic-form="final" d="M96 408q0 38 4 69.5t15 68.5h23q11 -41 41 -59q24 -15 66 -15h391q0 180 -50 291q-63 137 -209 182l15 196q175 -86 247 -273q59 -152 59 -396v-176h-453q-57 0 -103 33.5t-46 78.5z" />
<glyph unicode="&#x630;" horiz-adv-x="697" arabic-form="final" d="M96 408q0 38 4 69.5t15 68.5h23q11 -41 41 -59q24 -15 66 -15h391q0 180 -50 291q-63 137 -209 182l15 196q175 -86 247 -273q59 -152 59 -396v-176h-453q-57 0 -103 33.5t-46 78.5zM189 1424l74 147l166 -87l-79 -147z" />
<glyph unicode="&#x631;" horiz-adv-x="1011" arabic-form="final" d="M75 -66l17 41q67 -13 139 -27t131 -14q129 0 269 83q128 76 217.5 191.5t89.5 208.5q0 80 -46 168q-38 70 -105 145l57 159q83 -77 123 -154q44 -87 44 -194v-245q0 -111 -95 -230q-83 -105 -206 -181q-117 -73 -193 -73q-70 0 -150 20q-62 15 -148 48q-73 27 -144 54z " />
<glyph unicode="&#x632;" horiz-adv-x="1011" arabic-form="final" d="M75 -66l17 41q67 -13 139 -27t131 -14q129 0 269 83q128 76 217.5 191.5t89.5 208.5q0 80 -46 168q-38 70 -105 145l57 159q83 -77 123 -154q44 -87 44 -194v-245q0 -111 -95 -230q-83 -105 -206 -181q-117 -73 -193 -73q-70 0 -150 20q-62 15 -148 48q-73 27 -144 54z M619 1175l76 147l165 -86l-78 -146z" />
<glyph unicode="&#x633;" horiz-adv-x="1698" arabic-form="final" d="M63 160q0 86 21 175t57 179q23 55 77 168l41 -18q-71 -146 -94 -230t-23 -153q0 -125 89.5 -190.5t255.5 -65.5q194 0 346 68q190 84 190 234q0 101 -37 192q-30 72 -83 137l84 208q50 -83 68 -147q26 -90 26 -245h124q96 0 136 29q36 25 36 78q0 29 -3.5 59t-11.5 65 l41 61l16 -98q22 -99 60 -143q41 -48 117 -48q23 0 35.5 14.5t12.5 36.5q0 51 -31 108q-23 43 -62 85l68 110q47 -78 58 -106q22 -63 22 -185v-242h-80q-61 0 -106.5 16.5t-93.5 53.5q-42 -39 -76 -52q-47 -18 -138 -18h-124q0 -93 -45 -181q-57 -114 -175 -181 q-149 -83 -372 -83q-202 0 -309 70q-117 78 -117 239z" />
<glyph unicode="&#x633;" horiz-adv-x="1097" arabic-form="initial" d="M-71 296v176h195q82 0 117 14q59 23 59 93q0 29 -3 58.5t-11 65.5l41 61q29 -93 47 -136q32 -74 70 -111q47 -45 112 -45h67q76 0 112 23q41 26 41 84q0 31 -4 60.5t-11 63.5l42 61l21 -95q27 -112 67 -156q34 -38 93 -38q27 0 43.5 16.5t16.5 42.5q0 57 -41 119 q-7 11 -50 66l66 110q41 -62 57 -108q22 -69 22 -183v-242h-78q-65 0 -111 17.5t-85 50.5q-47 -38 -83 -50q-51 -18 -141 -18h-66q-52 0 -105 20q-34 13 -85 44q-48 -37 -88.5 -50.5t-131.5 -13.5h-195z" />
<glyph unicode="&#x633;" horiz-adv-x="1097" arabic-form="medial" d="M-71 296v176h195q82 0 117 14q59 23 59 93q0 29 -3 58.5t-11 65.5l41 61q29 -93 47 -136q32 -74 70 -111q47 -45 112 -45h67q76 0 112 23q41 26 41 84q0 31 -4 60.5t-11 63.5l42 61l21 -95q27 -112 67 -156q34 -38 93 -38q27 0 43.5 16.5t16.5 42.5q0 57 -41 119 q-7 11 -50 66l66 110q41 -62 57 -108q22 -69 22 -183v-242h-78q-65 0 -111 17.5t-85 50.5q-47 -38 -83 -50q-51 -18 -141 -18h-66q-52 0 -105 20q-34 13 -85 44q-48 -37 -88.5 -50.5t-131.5 -13.5h-195z" />
<glyph unicode="&#x634;" horiz-adv-x="1698" arabic-form="final" d="M63 160q0 86 21 175t57 179q23 55 77 168l41 -18q-71 -146 -94 -230t-23 -153q0 -125 89.5 -190.5t255.5 -65.5q194 0 346 68q190 84 190 234q0 101 -37 192q-30 72 -83 137l84 208q50 -83 68 -147q26 -90 26 -245h124q96 0 136 29q36 25 36 78q0 29 -3.5 59t-11.5 65 l41 61l16 -98q22 -99 60 -143q41 -48 117 -48q23 0 35.5 14.5t12.5 36.5q0 51 -31 108q-23 43 -62 85l68 110q47 -78 58 -106q22 -63 22 -185v-242h-80q-61 0 -106.5 16.5t-93.5 53.5q-42 -39 -76 -52q-47 -18 -138 -18h-124q0 -93 -45 -181q-57 -114 -175 -181 q-149 -83 -372 -83q-202 0 -309 70q-117 78 -117 239zM1146 1060l75 147l166 -85l-77 -146zM1181 1332l74 148l165 -87l-78 -148zM1377 1154l75 145l167 -86l-79 -145z" />
<glyph unicode="&#x634;" horiz-adv-x="1097" arabic-form="initial" d="M-71 296v176h195q82 0 117 14q59 23 59 93q0 29 -3 58.5t-11 65.5l41 61q29 -93 47 -136q32 -74 70 -111q47 -45 112 -45h67q76 0 112 23q41 26 41 84q0 31 -4 60.5t-11 63.5l42 61l21 -95q27 -112 67 -156q34 -38 93 -38q27 0 43.5 16.5t16.5 42.5q0 57 -41 119 q-7 11 -50 66l66 110q41 -62 57 -108q22 -69 22 -183v-242h-78q-65 0 -111 17.5t-85 50.5q-47 -38 -83 -50q-51 -18 -141 -18h-66q-52 0 -105 20q-34 13 -85 44q-48 -37 -88.5 -50.5t-131.5 -13.5h-195zM535 1060l75 147l166 -85l-77 -146zM570 1332l74 148l165 -87 l-78 -148zM766 1154l75 145l167 -86l-79 -145z" />
<glyph unicode="&#x634;" horiz-adv-x="1097" arabic-form="medial" d="M-71 296v176h195q82 0 117 14q59 23 59 93q0 29 -3 58.5t-11 65.5l41 61q29 -93 47 -136q32 -74 70 -111q47 -45 112 -45h67q76 0 112 23q41 26 41 84q0 31 -4 60.5t-11 63.5l42 61l21 -95q27 -112 67 -156q34 -38 93 -38q27 0 43.5 16.5t16.5 42.5q0 57 -41 119 q-7 11 -50 66l66 110q41 -62 57 -108q22 -69 22 -183v-242h-78q-65 0 -111 17.5t-85 50.5q-47 -38 -83 -50q-51 -18 -141 -18h-66q-52 0 -105 20q-34 13 -85 44q-48 -37 -88.5 -50.5t-131.5 -13.5h-195zM535 1060l75 147l166 -85l-77 -146zM570 1332l74 148l165 -87 l-78 -148zM766 1154l75 145l167 -86l-79 -145z" />
<glyph unicode="&#x635;" horiz-adv-x="2271" arabic-form="final" d="M63 160q0 86 21 175t57 179q23 55 77 168l41 -18q-71 -146 -94 -230t-23 -153q0 -125 89.5 -190.5t255.5 -65.5q194 0 346 68q190 84 190 234q0 101 -37 192q-30 72 -83 137l84 208q50 -83 68 -147q26 -90 26 -245h18q120 0 223 38q89 33 187 105q149 104 179 123 q83 53 148 75q75 25 165 25q138 0 207 -79q63 -74 63 -208v-255h-1199q-31 -210 -146 -315q-143 -130 -437 -130q-202 0 -309 70q-117 78 -117 239zM1430 472h466q97 0 154.5 19.5t57.5 57.5q0 50 -62 77.5t-145 27.5q-73 0 -163 -32q-63 -23 -161 -74q-74 -38 -147 -76z " />
<glyph unicode="&#x635;" horiz-adv-x="1750" arabic-form="initial" d="M-71 296v176h195q82 0 117 14q59 23 59 93q0 29 -3.5 59t-10.5 65l41 61q36 -138 97 -213q66 -79 155 -79q85 0 199 38q123 41 212 105q144 103 177 123q81 53 148 75q75 25 164 25q137 0 207 -79q64 -74 64 -208v-255h-1214q-54 0 -104 18q-37 14 -88 46 q-42 -37 -84.5 -50.5t-135.5 -13.5h-195zM909 472h466q110 0 160.5 19t50.5 58q0 50 -62 77.5t-143 27.5q-101 0 -245 -67q-114 -58 -227 -115z" />
<glyph unicode="&#x635;" horiz-adv-x="1750" arabic-form="medial" d="M-71 296v176h195q82 0 117 14q59 23 59 93q0 29 -3.5 59t-10.5 65l41 61q36 -138 97 -213q66 -79 155 -79q85 0 199 38q123 41 212 105q144 103 177 123q81 53 148 75q75 25 164 25q137 0 207 -79q64 -74 64 -208v-255h-1214q-54 0 -104 18q-37 14 -88 46 q-42 -37 -84.5 -50.5t-135.5 -13.5h-195zM909 472h466q110 0 160.5 19t50.5 58q0 50 -62 77.5t-143 27.5q-101 0 -245 -67q-114 -58 -227 -115z" />
<glyph unicode="&#x636;" horiz-adv-x="2271" arabic-form="final" d="M63 160q0 86 21 175t57 179q23 55 77 168l41 -18q-71 -146 -94 -230t-23 -153q0 -125 89.5 -190.5t255.5 -65.5q194 0 346 68q190 84 190 234q0 101 -37 192q-30 72 -83 137l84 208q50 -83 68 -147q26 -90 26 -245h18q120 0 223 38q89 33 187 105q149 104 179 123 q83 53 148 75q75 25 165 25q138 0 207 -79q63 -74 63 -208v-255h-1199q-31 -210 -146 -315q-143 -130 -437 -130q-202 0 -309 70q-117 78 -117 239zM1358 1074l75 147l166 -86l-77 -146zM1430 472h466q97 0 154.5 19.5t57.5 57.5q0 50 -62 77.5t-145 27.5q-73 0 -163 -32 q-63 -23 -161 -74q-74 -38 -147 -76z" />
<glyph unicode="&#x636;" horiz-adv-x="1750" arabic-form="initial" d="M-71 296v176h195q82 0 117 14q59 23 59 93q0 29 -3.5 59t-10.5 65l41 61q36 -138 97 -213q66 -79 155 -79q85 0 199 38q123 41 212 105q144 103 177 123q81 53 148 75q75 25 164 25q137 0 207 -79q64 -74 64 -208v-255h-1214q-54 0 -104 18q-37 14 -88 46 q-42 -37 -84.5 -50.5t-135.5 -13.5h-195zM868 1074l74 147l166 -86l-77 -146zM909 472h466q110 0 160.5 19t50.5 58q0 50 -62 77.5t-143 27.5q-101 0 -245 -67q-114 -58 -227 -115z" />
<glyph unicode="&#x636;" horiz-adv-x="1750" arabic-form="medial" d="M-71 296v176h195q82 0 117 14q59 23 59 93q0 29 -3.5 59t-10.5 65l41 61q36 -138 97 -213q66 -79 155 -79q85 0 199 38q123 41 212 105q144 103 177 123q81 53 148 75q75 25 164 25q137 0 207 -79q64 -74 64 -208v-255h-1214q-54 0 -104 18q-37 14 -88 46 q-42 -37 -84.5 -50.5t-135.5 -13.5h-195zM868 1074l74 147l166 -86l-77 -146zM909 472h466q110 0 160.5 19t50.5 58q0 50 -62 77.5t-143 27.5q-101 0 -245 -67q-114 -58 -227 -115z" />
<glyph unicode="&#x637;" horiz-adv-x="1202" arabic-form="final" d="M-71 296v176l155 1q69 0 128 18q69 21 156 75q18 44 29 95t11 99q0 108 -20 238q-15 95 -46 223q-16 67 -42 163l-63 31q7 61 21 117.5t38 108.5q16 -47 74 -73q47 -22 121 -29q-10 -104 -15 -132t-19 -70q-8 1 -38 10l-13 4q35 -118 58 -242.5t23 -209.5q0 -72 -14 -160 q-5 -31 -19 -97q177 102 227 126q149 70 256 70q137 0 204 -79q62 -73 62 -208v-255h-1274zM366 472h439q238 0 238 77q0 52 -53 78.5t-152 26.5q-73 0 -169 -32q-79 -26 -168 -73q-66 -34 -135 -77z" />
<glyph unicode="&#x637;" horiz-adv-x="1202" arabic-form="initial" d="M-71 296v176l155 1q69 0 128 18q69 21 156 75q18 44 29 95t11 99q0 108 -20 238q-15 95 -46 223q-16 67 -42 163l-63 31q7 61 21 117.5t38 108.5q16 -47 74 -73q47 -22 121 -29q-10 -104 -15 -132t-19 -70q-8 1 -38 10l-13 4q35 -118 58 -242.5t23 -209.5q0 -72 -14 -160 q-5 -31 -19 -97q177 102 227 126q149 70 256 70q137 0 204 -79q62 -73 62 -208v-255h-1274zM366 472h439q238 0 238 77q0 52 -53 78.5t-152 26.5q-73 0 -169 -32q-79 -26 -168 -73q-66 -34 -135 -77z" />
<glyph unicode="&#x637;" horiz-adv-x="1202" arabic-form="medial" d="M-71 296v176l155 1q69 0 128 18q69 21 156 75q18 44 29 95t11 99q0 108 -20 238q-15 95 -46 223q-16 67 -42 163l-63 31q7 61 21 117.5t38 108.5q16 -47 74 -73q47 -22 121 -29q-10 -104 -15 -132t-19 -70q-8 1 -38 10l-13 4q35 -118 58 -242.5t23 -209.5q0 -72 -14 -160 q-5 -31 -19 -97q177 102 227 126q149 70 256 70q137 0 204 -79q62 -73 62 -208v-255h-1274zM366 472h439q238 0 238 77q0 52 -53 78.5t-152 26.5q-73 0 -169 -32q-79 -26 -168 -73q-66 -34 -135 -77z" />
<glyph unicode="&#x638;" horiz-adv-x="1202" arabic-form="final" d="M-71 296v176l155 1q69 0 128 18q69 21 156 75q18 44 29 95t11 99q0 108 -20 238q-15 95 -46 223q-16 67 -42 163l-63 31q7 61 21 117.5t38 108.5q16 -47 74 -73q47 -22 121 -29q-10 -104 -15 -132t-19 -70q-8 1 -38 10l-13 4q35 -118 58 -242.5t23 -209.5q0 -72 -14 -160 q-5 -31 -19 -97q177 102 227 126q149 70 256 70q137 0 204 -79q62 -73 62 -208v-255h-1274zM366 472h439q238 0 238 77q0 52 -53 78.5t-152 26.5q-73 0 -169 -32q-79 -26 -168 -73q-66 -34 -135 -77zM687 1175l75 147l166 -86l-78 -146z" />
<glyph unicode="&#x638;" horiz-adv-x="1202" arabic-form="initial" d="M-71 296v176l155 1q69 0 128 18q69 21 156 75q18 44 29 95t11 99q0 108 -20 238q-15 95 -46 223q-16 67 -42 163l-63 31q7 61 21 117.5t38 108.5q16 -47 74 -73q47 -22 121 -29q-10 -104 -15 -132t-19 -70q-8 1 -38 10l-13 4q35 -118 58 -242.5t23 -209.5q0 -72 -14 -160 q-5 -31 -19 -97q177 102 227 126q149 70 256 70q137 0 204 -79q62 -73 62 -208v-255h-1274zM366 472h439q238 0 238 77q0 52 -53 78.5t-152 26.5q-73 0 -169 -32q-79 -26 -168 -73q-66 -34 -135 -77zM687 1175l75 147l166 -86l-78 -146z" />
<glyph unicode="&#x638;" horiz-adv-x="1202" arabic-form="medial" d="M-71 296v176l155 1q69 0 128 18q69 21 156 75q18 44 29 95t11 99q0 108 -20 238q-15 95 -46 223q-16 67 -42 163l-63 31q7 61 21 117.5t38 108.5q16 -47 74 -73q47 -22 121 -29q-10 -104 -15 -132t-19 -70q-8 1 -38 10l-13 4q35 -118 58 -242.5t23 -209.5q0 -72 -14 -160 q-5 -31 -19 -97q177 102 227 126q149 70 256 70q137 0 204 -79q62 -73 62 -208v-255h-1274zM366 472h439q238 0 238 77q0 52 -53 78.5t-152 26.5q-73 0 -169 -32q-79 -26 -168 -73q-66 -34 -135 -77zM687 1175l75 147l166 -86l-78 -146z" />
<glyph unicode="&#x639;" horiz-adv-x="931" arabic-form="final" d="M55 25q0 139 53 257q42 94 127 189q41 45 149 146q-10 34 -29 50.5t-40 16.5q-26 0 -51 -36h-18q22 106 45 147q56 97 186 97q87 0 149 -43q70 -47 70 -123q0 -49 -38 -84q-36 -28 -58 -46q56 -68 108.5 -96t129.5 -28h93v-176h-93q-154 0 -239.5 46.5t-136.5 153.5 q-74 -48 -134 -98q-81 -69 -126 -134q-57 -82 -57 -158q0 -171 171 -265q131 -71 361 -97q121 -13 324 -13l4 -8l-204 -161q-189 0 -297 17q-196 31 -307 121q-142 116 -142 325z" />
<glyph unicode="&#x639;" horiz-adv-x="1087" arabic-form="initial" d="M-71 296v176h243q-30 47 -48 107t-18 117q0 119 99.5 200t256.5 81q124 0 205 -61q34 -25 116 -124l-19 -17q-70 19 -125.5 28.5t-115.5 9.5q-139 0 -218.5 -31t-79.5 -81t50 -111t129 -108q166 25 272 48.5t297 80.5l-70 -184q-153 -55 -353.5 -93t-368.5 -38h-252z" />
<glyph unicode="&#x639;" horiz-adv-x="815" arabic-form="medial" d="M-71 296v176h91q85 0 158 18q83 21 162 68l-42 54q-32 38 -73 38q-18 0 -32 -6.5t-31 -28.5h-22v60q0 111 59 152q53 38 186 38q114 0 186 -31q94 -39 94 -121q0 -43 -38 -90q-27 -34 -100 -95q16 -24 62 -40t78 -16h148v-176h-148q-66 0 -134 31q-81 38 -117 104 q-68 -60 -154 -94q-106 -41 -242 -41h-91z" />
<glyph unicode="&#x63a;" horiz-adv-x="931" arabic-form="final" d="M55 25q0 139 53 257q42 94 127 189q41 45 149 146q-10 34 -29 50.5t-40 16.5q-26 0 -51 -36h-18q22 106 45 147q56 97 186 97q87 0 149 -43q70 -47 70 -123q0 -49 -38 -84q-36 -28 -58 -46q56 -68 108.5 -96t129.5 -28h93v-176h-93q-154 0 -239.5 46.5t-136.5 153.5 q-74 -48 -134 -98q-81 -69 -126 -134q-57 -82 -57 -158q0 -171 171 -265q131 -71 361 -97q121 -13 324 -13l4 -8l-204 -161q-189 0 -297 17q-196 31 -307 121q-142 116 -142 325zM365 1175l75 147l165 -86l-77 -146z" />
<glyph unicode="&#x63a;" horiz-adv-x="1087" arabic-form="initial" d="M-71 296v176h243q-30 47 -48 107t-18 117q0 119 99.5 200t256.5 81q124 0 205 -61q34 -25 116 -124l-19 -17q-70 19 -125.5 28.5t-115.5 9.5q-139 0 -218.5 -31t-79.5 -81t50 -111t129 -108q166 25 272 48.5t297 80.5l-70 -184q-153 -55 -353.5 -93t-368.5 -38h-252z M308 1175l77 147l163 -86l-75 -146z" />
<glyph unicode="&#x63a;" horiz-adv-x="815" arabic-form="medial" d="M-71 296v176h91q85 0 158 18q83 21 162 68l-42 54q-32 38 -73 38q-18 0 -32 -6.5t-31 -28.5h-22v60q0 111 59 152q53 38 186 38q114 0 186 -31q94 -39 94 -121q0 -43 -38 -90q-27 -34 -100 -95q16 -24 62 -40t78 -16h148v-176h-148q-66 0 -134 31q-81 38 -117 104 q-68 -60 -154 -94q-106 -41 -242 -41h-91zM230 1175l76 147l165 -86l-77 -146z" />
<glyph unicode="&#x641;" horiz-adv-x="1631" arabic-form="final" d="M39 640q0 90 52 210q37 82 55 123l41 -24q-44 -87 -58 -133t-14 -84q0 -133 145.5 -196.5t462.5 -63.5h745q-119 32 -174 74q-64 49 -64 121q0 94 63 201q71 120 156 120q100 0 145 -118q37 -99 37 -282v-292h-926q-213 0 -343 26q-156 32 -236 104q-87 79 -87 214z M1184 1261l84 148l162 -87l-83 -149zM1369 715q0 -49 41 -75q30 -18 116 -38q0 88 -19 135q-23 57 -71 57q-34 0 -50.5 -21t-16.5 -58z" />
<glyph unicode="&#x641;" horiz-adv-x="553" arabic-form="initial" d="M-71 296v176h539q0 90 -22 168q-52 -17 -80 -24q-47 -12 -82 -12q-74 0 -120 37q-54 43 -54 123q0 140 51 245q56 117 147 117q123 0 190 -193q55 -159 55 -374v-263h-624zM179 1354l75 148l165 -87l-78 -147zM200 869q0 -81 89 -81q23 0 49.5 9t50.5 24q-14 36 -46 74 q-42 50 -80 50q-28 0 -45.5 -22.5t-17.5 -53.5z" />
<glyph unicode="&#x641;" horiz-adv-x="543" arabic-form="medial" d="M-71 296v176h347q62 0 106 4.5t96 19.5q-174 25 -226 47q-116 51 -116 172q0 106 56 200q63 106 152 106q103 0 157 -131q42 -104 42 -246v-348h-614zM225 1320l84 141l147 -92l-89 -146zM239 770q0 -77 80 -103q28 -9 133 -19q-23 81 -44 121q-41 75 -100 75 q-28 0 -48.5 -22t-20.5 -52z" />
<glyph unicode="&#x642;" horiz-adv-x="1202" arabic-form="final" d="M71 187q0 119 38 250q35 122 101 243l42 -18q-29 -71 -49 -126q-27 -74 -39 -128q-16 -68 -16 -131q0 -132 112 -194q103 -58 304 -58q215 0 376 71q187 82 187 221q0 52 -3.5 74.5t-12.5 45.5q-38 -18 -77 -28.5t-79 -10.5q-88 0 -144 40q-68 49 -68 147q0 114 59 218 q66 117 155 117q119 0 187 -161q59 -138 59 -319v-196q0 -200 -192 -305q-173 -94 -459 -94q-225 0 -348 81q-133 88 -133 261zM612 1175l75 146l165 -85l-76 -146zM840 656q0 -31 29.5 -49t66.5 -18q27 0 49.5 7.5t56.5 22.5q-26 63 -37 78q-28 41 -71 41q-48 0 -71 -23 t-23 -59zM842 1269l76 144l167 -86l-79 -145z" />
<glyph unicode="&#x642;" horiz-adv-x="553" arabic-form="initial" d="M-71 296v176h539q0 90 -22 168q-52 -17 -80 -24q-47 -12 -82 -12q-74 0 -120 37q-54 43 -54 123q0 140 51 245q56 117 147 117q123 0 190 -193q55 -159 55 -374v-263h-624zM48 1293l75 146l166 -85l-77 -146zM200 869q0 -81 89 -81q23 0 49.5 9t50.5 24q-14 36 -46 74 q-42 50 -80 50q-28 0 -45.5 -22.5t-17.5 -53.5zM279 1387l76 144l166 -86l-79 -145z" />
<glyph unicode="&#x642;" horiz-adv-x="543" arabic-form="medial" d="M-71 296v176h347q62 0 106 4.5t96 19.5q-174 25 -226 47q-116 51 -116 172q0 106 56 200q63 106 152 106q103 0 157 -131q42 -104 42 -246v-348h-614zM65 1305l83 135l121 -80l-80 -137zM239 770q0 -77 80 -103q28 -9 133 -19q-23 81 -44 121q-41 75 -100 75 q-28 0 -48.5 -22t-20.5 -52zM288 1369l87 134l125 -82l-86 -135z" />
<glyph unicode="&#x643;" horiz-adv-x="1243" arabic-form="final" d="M45 564q0 88 48 202q13 31 55 116l35 -20q-35 -79 -45.5 -121.5t-10.5 -80.5q0 -111 116 -155q87 -33 255 -33h643l-126 856l-52 25q0 70 12 131t36 119l15 -11q0 -59 73 -88l109 -41q0 -46 -11.5 -103.5t-23.5 -89.5l-49 16l119 -792v-198h-745q-241 0 -343 58 q-110 61 -110 210zM323 736l17 22q25 0 59 -4q80 -7 99 -7q116 0 199.5 34t83.5 81q0 21 -17.5 36t-40.5 15q-26 0 -40 -1l-71 -5q-25 0 -43 13t-18 45q0 84 88.5 202.5t185.5 150.5l-19 -132q-70 -19 -107 -42q-61 -35 -61 -85q0 -17 16.5 -24.5t37.5 -7.5q18 0 32 2l55 7 q52 0 73.5 -27t21.5 -96q0 -110 -74 -170.5t-207 -60.5q-62 0 -136 17q-46 10 -134 37z" />
<glyph unicode="&#x643;" horiz-adv-x="815" arabic-form="initial" d="M-71 296v176h769q-71 107 -162 186t-245 171l-33 -31l-120 91q-62 52 -62 82q0 173 85 272q78 91 271 164l285 111v-175l-211 -70q-126 -42 -204 -76q-99 -44 -99 -67t65 -72q40 -30 81 -60q154 -116 268 -244q123 -136 198 -282v-176h-886z" />
<glyph unicode="&#x643;" horiz-adv-x="815" arabic-form="medial" d="M-71 296v176h769q-71 107 -162 186t-245 171l-33 -31l-120 91q-62 52 -62 82q0 173 85 272q78 91 271 164l285 111v-175l-211 -70q-126 -42 -204 -76q-99 -44 -99 -67t65 -72q40 -30 81 -60q154 -116 268 -244q123 -136 198 -282v-176h-886z" />
<glyph unicode="&#x644;" horiz-adv-x="1047" arabic-form="final" d="M72 321q0 87 25 181q21 80 65 175q31 68 84 165l33 -19q-38 -68 -63 -121q-33 -72 -49 -128q-20 -69 -20 -134q0 -124 90.5 -187.5t251.5 -63.5q171 0 316 58q160 65 160 155q0 98 -32 332q-24 180 -59 402l-34 196l-46 24q0 136 55 247h18q4 -39 14 -57.5t33 -27.5 q31 -13 69 -31q27 -13 47 -24q0 -70 -5 -102.5t-20 -90.5l-58 18q2 -22 30 -203q31 -211 46 -343q24 -210 24 -321q0 -161 -75 -256q-68 -84 -199 -121q-111 -30 -282 -30q-195 0 -302 72q-117 79 -117 235z" />
<glyph unicode="&#x644;" horiz-adv-x="428" arabic-form="initial" d="M-71 296v176h397l-120 856l-52 25q0 70 12 131t36 119l15 -11q0 -59 66 -88q50 -20 102 -41q0 -50 -8 -107.5t-19 -85.5l-49 16l119 -792v-198h-499z" />
<glyph unicode="&#x644;" horiz-adv-x="428" arabic-form="medial" d="M-71 296v176h397l-120 856l-52 25q0 70 12 131t36 119l15 -11q0 -59 66 -88q50 -20 102 -41q0 -50 -8 -107.5t-19 -85.5l-49 16l119 -792v-198h-499z" />
<glyph unicode="&#x645;" horiz-adv-x="698" arabic-form="final" d="M35 126q0 130 54 199t167 102q88 26 267 45q-63 64 -79 76q-51 41 -104 41q-33 0 -63 -20q-25 -17 -59 -56l-46 29q30 76 68 122q64 74 151 74q62 0 125 -46q52 -39 105 -107q26 -34 78 -113v-176h-120q-168 0 -293 -31q-159 -40 -159 -113q0 -67 23 -143t46.5 -153.5 t23.5 -142.5q0 -38 -5.5 -69.5t-19.5 -81.5q-26 83 -52 167q-48 160 -71 242q-37 129 -37 155z" />
<glyph unicode="&#x645;" horiz-adv-x="815" arabic-form="initial" d="M-71 296v176h155q92 0 163 46q56 36 101 102q62 89 152 155q81 58 148 74q70 -106 112 -190q55 -116 55 -187v-176h-105q-68 0 -152 30q-98 36 -173 97q-59 -72 -120 -99.5t-178 -27.5h-158zM463 591q36 -40 102 -71t125 -38l9 13q-13 58 -40 115q-24 48 -62 98 q-49 -12 -82 -45q-22 -22 -52 -72z" />
<glyph unicode="&#x645;" horiz-adv-x="815" arabic-form="medial" d="M-71 296v176h155q92 0 163 46q56 36 101 102q62 89 152 155q81 58 148 74q70 -106 112 -190q55 -116 55 -187v-176h-105q-68 0 -152 30q-98 36 -173 97q-59 -72 -120 -99.5t-178 -27.5h-158zM463 591q36 -40 102 -71t125 -38l9 13q-13 58 -40 115q-24 48 -62 98 q-49 -12 -82 -45q-22 -22 -52 -72z" />
<glyph unicode="&#x646;" horiz-adv-x="1087" arabic-form="final" d="M70 160q0 86 21 175t57 179q23 55 77 168l41 -18q-71 -146 -94 -230t-23 -153q0 -125 89.5 -190.5t255.5 -65.5q191 0 338 68q183 84 183 234q0 103 -30 192q-27 79 -75 137l84 208q53 -82 73.5 -167t20.5 -225v-176q0 -225 -133 -331q-142 -114 -459 -114 q-202 0 -309 70q-117 78 -117 239zM479 1013l72 140l161 -82l-76 -145z" />
<glyph unicode="&#x646;" horiz-adv-x="505" arabic-form="initial" d="M-71 296v176h502q0 119 -28 181q-19 44 -95 126l79 164q73 -92 91 -143q27 -78 27 -258v-246h-576zM184 1169l75 146l165 -85l-77 -146z" />
<glyph unicode="&#x646;" horiz-adv-x="505" arabic-form="medial" d="M-71 296v176h502q0 119 -28 181q-19 44 -95 126l79 164q73 -92 91 -143q27 -78 27 -258v-246h-576zM184 1169l75 146l165 -85l-77 -146z" />
<glyph unicode="&#x647;" horiz-adv-x="583" arabic-form="isolated" d="M55 393q0 71 35 164q32 78 66 158l-16 4l62 171q183 -96 218 -121q121 -85 121 -175q0 -143 -46 -214q-72 -111 -263 -111q-73 0 -122 29q-55 33 -55 95zM158 534q0 -51 28.5 -80t77.5 -29q56 0 122.5 32t66.5 58q0 38 -111 102q-47 27 -102 54q-45 -50 -54 -62 q-28 -39 -28 -75z" />
<glyph unicode="&#x647;" horiz-adv-x="775" arabic-form="final" d="M-9 596q0 87 113 192.5t283 184.5q-2 8 -8.5 42t-6.5 42q0 35 23 77q19 35 50 71q11 -63 21.5 -121.5t24.5 -120.5l30 -174q25 -144 46 -212q31 -105 64 -105h145v-176h-145q-72 0 -128 124q-41 93 -67 240q-30 -57 -76.5 -88.5t-97.5 -31.5q-117 0 -194 16t-77 40z M181 703q21 -9 49.5 -14t77.5 -5q61 0 115 63l-19 110q-88 -31 -138.5 -64.5t-84.5 -89.5z" />
<glyph unicode="&#x647;" horiz-adv-x="815" arabic-form="medial" d="M-71 296v176h256q35 94 78 174q53 102 112 167q67 75 127 75q31 0 55 -54.5t24 -116.5q0 -89 -47 -144q-27 -34 -163 -101h444v-176h-370q65 -30 111 -86q57 -70 57 -151q0 -79 -24 -127q-30 -59 -95 -59q-121 0 -222 84q-122 101 -122 266l3 73h-224zM215 305 q0 -111 54 -183q64 -87 193 -87q24 0 41.5 10.5t17.5 29.5q0 80 -117 153q-96 61 -189 77zM254 492q91 25 154 64q73 44 73 86q0 96 -41 96q-43 0 -104 -95q-29 -45 -82 -151z" />
<glyph unicode="&#x648;" horiz-adv-x="893" arabic-form="final" d="M50 -60l18 36q56 -13 118 -28t112 -15q123 0 233 63q86 49 172 143q43 48 123 155q-136 0 -204 43q-77 50 -77 163q0 104 49 193q56 103 143 103q88 0 127 -102q30 -80 30 -222v-115q0 -167 -123 -332q-138 -184 -318 -184q-66 0 -137 16q-51 11 -134 38q-66 23 -132 45z M640 568q0 -50 44.5 -75.5t145.5 -25.5q-22 97 -53 134q-28 32 -67 32q-28 0 -49 -18.5t-21 -46.5z" />
<glyph unicode="&#x649;" horiz-adv-x="1217" arabic-form="final" d="M36 71q0 117 65 248q23 48 122 203l41 -20q-39 -66 -76 -130q-58 -111 -58 -182q0 -124 130 -189q123 -62 338 -62q144 0 254 23q136 27 136 74q0 18 -15.5 26.5t-50.5 8.5q-27 3 -85 6.5t-76 3.5q-64 0 -91.5 16.5t-27.5 49.5q0 126 74 205q61 65 163 96q76 24 161 24 h177v-176h-177q-155 0 -233.5 -8t-78.5 -32q0 -34 94 -34q42 0 66 -2t106 -11q48 -6 66 -15q30 -15 30 -53q0 -188 -124 -274q-136 -94 -448 -94q-217 0 -345 73q-137 79 -137 225z" />
<glyph unicode="&#x64a;" horiz-adv-x="1217" arabic-form="final" d="M36 71q0 117 65 248q23 48 122 203l41 -20q-39 -66 -76 -130q-58 -111 -58 -182q0 -124 130 -189q123 -62 338 -62q144 0 254 23q136 27 136 74q0 18 -15.5 26.5t-50.5 8.5q-27 3 -85 6.5t-76 3.5q-64 0 -91.5 16.5t-27.5 49.5q0 126 74 205q61 65 163 96q76 24 161 24 h177v-176h-177q-155 0 -233.5 -8t-78.5 -32q0 -34 94 -34q42 0 66 -2t106 -11q48 -6 66 -15q30 -15 30 -53q0 -188 -124 -274q-136 -94 -448 -94q-217 0 -345 73q-137 79 -137 225zM381 -367l94 95l115 -79l-92 -87zM592 -367l91 95l116 -79l-94 -87z" />
<glyph unicode="&#x64a;" horiz-adv-x="505" arabic-form="initial" d="M-71 296v176h502q0 119 -28 181q-19 44 -95 126l79 164q73 -92 91 -143q27 -78 27 -258v-246h-576zM27 -59l75 147l166 -85l-77 -146zM258 35l75 145l167 -86l-79 -146z" />
<glyph unicode="&#x64a;" horiz-adv-x="505" arabic-form="medial" d="M-71 296v176h502q0 119 -28 181q-19 44 -95 126l79 164q73 -92 91 -143q27 -78 27 -258v-246h-576zM27 -59l75 147l166 -85l-77 -146zM258 35l75 145l167 -86l-79 -146z" />
<glyph unicode="&#xfef5;" horiz-adv-x="1125" arabic-form="isolated" d="M65 1644q25 37 36 46q23 20 62 20q9 0 110 -32q50 -17 84 -17q53 0 106 24l14 -14q-29 -33 -58 -50q-41 -24 -90 -24q-50 0 -96 15q-100 33 -106 33q-12 0 -24 -3.5t-27 -10.5zM84 1329q0 63 8 98q12 54 41 54q42 0 121 -79q69 -71 155 -186q76 -102 150 -220l103 -166 q45 -75 92 -169q68 136 93 275q23 121 23 309l-58 34q0 66 11.5 120t32.5 99l24 -6q4 -44 48 -70q24 -14 62 -32t58 -26l-48 -182l-60 29l2 -92q0 -135 -34 -263q-37 -139 -118 -275q38 -71 53 -111q24 -64 24 -130q0 -37 -2 -63.5t-10 -61.5q-107 -24 -228.5 -37.5 t-236.5 -13.5q1 19 1 32q5 77 24 142q172 92 290 239q-71 133 -103 189q-35 60 -120 188q-32 44 -56 70q-33 35 -52 35q-13 0 -44 -15q-16 -8 -27 -8q-22 0 -70 45q-41 39 -87 97q-36 46 -49 77t-13 74zM530 326q119 0 170 7q86 12 86 48q0 22 -8.5 45.5t-38.5 78.5 q-30 -39 -90 -90.5t-119 -88.5z" />
<glyph unicode="&#xfef6;" horiz-adv-x="1242" arabic-form="final" d="M74 1644q25 37 36 46q23 20 62 20q9 0 110 -32q50 -17 84 -17q53 0 106 24l14 -14q-28 -33 -58 -50q-41 -24 -90 -24q-50 0 -96 15q-100 33 -106 33q-12 0 -24 -3.5t-27 -10.5zM75 244v29q271 82 405 141q215 95 326 219q134 150 134 355q0 99 -12.5 184.5t-34.5 175.5 l33 85q20 50 38 84q26 -145 49 -314q16 -116 31 -250q20 -163 34 -263q18 -127 54 -182q24 -36 49 -36h61v-176h-61q-85 0 -137 92q-61 111 -61 336q0 16 -3.5 43.5t-3.5 34.5q-97 -270 -173 -370q-90 -117 -254 -155q-139 -33 -474 -33zM121 1417q0 64 42 64q72 0 227 -92 q173 -102 290 -239q144 -166 144 -326q0 -20 -2 -34t-10 -36q-57 127 -168 261q-123 149 -194 149q-15 0 -30 -26.5t-35 -26.5q-27 0 -86 35q-74 45 -118 103q-60 79 -60 168z" />
<glyph unicode="&#xfef7;" horiz-adv-x="1125" arabic-form="isolated" d="M38 1516q0 46 101 82q-31 16 -47 31q-21 19 -21 41q0 31 53 87q60 63 105 63q20 0 35 -13.5t15 -35.5q0 -15 -6 -29.5t-17 -32.5q-32 28 -68 28q-22 0 -44 -9t-22 -21q0 -15 47 -41.5t80 -26.5q23 0 32.5 1.5t39.5 13.5q0 -25 -31 -45q-21 -13 -64 -28zM84 1329 q0 63 8 98q12 54 41 54q42 0 121 -79q69 -71 155 -186q76 -102 150 -220l103 -166q45 -75 92 -169q68 136 93 275q23 121 23 309l-58 34q0 66 11.5 120t32.5 99l24 -6q4 -44 48 -70q24 -14 62 -32t58 -26l-48 -182l-60 29l2 -92q0 -135 -34 -263q-37 -139 -118 -275 q38 -71 53 -111q24 -64 24 -130q0 -37 -2 -63.5t-10 -61.5q-107 -24 -228.5 -37.5t-236.5 -13.5q1 19 1 32q5 77 24 142q172 92 290 239q-71 133 -103 189q-35 60 -120 188q-32 44 -56 70q-33 35 -52 35q-13 0 -44 -15q-16 -8 -27 -8q-22 0 -70 45q-41 39 -87 97 q-36 46 -49 77t-13 74zM530 326q119 0 170 7q86 12 86 48q0 22 -8.5 45.5t-38.5 78.5q-30 -39 -90 -90.5t-119 -88.5z" />
<glyph unicode="&#xfef8;" horiz-adv-x="1242" arabic-form="final" d="M58 1516q0 46 101 82q-32 16 -48 31q-21 19 -21 41q0 31 53 87q60 63 105 63q21 0 35.5 -13.5t14.5 -35.5q0 -15 -6 -29.5t-17 -32.5q-32 28 -68 28q-22 0 -44 -9t-22 -21q0 -15 47 -41.5t81 -26.5q22 0 31.5 1.5t39.5 13.5q0 -25 -31 -45q-21 -13 -64 -28zM75 244v29 q271 82 405 141q215 95 326 219q134 150 134 355q0 99 -12.5 184.5t-34.5 175.5l33 85q20 50 38 84q26 -145 49 -314q16 -116 31 -250q20 -163 34 -263q18 -127 54 -182q24 -36 49 -36h61v-176h-61q-85 0 -137 92q-61 111 -61 336q0 16 -3.5 43.5t-3.5 34.5 q-97 -270 -173 -370q-90 -117 -254 -155q-139 -33 -474 -33zM121 1417q0 64 42 64q72 0 227 -92q173 -102 290 -239q144 -166 144 -326q0 -20 -2 -34t-10 -36q-57 127 -168 261q-123 149 -194 149q-15 0 -30 -26.5t-35 -26.5q-27 0 -86 35q-74 45 -118 103q-60 79 -60 168z " />
<glyph unicode="&#xfef9;" horiz-adv-x="1125" arabic-form="isolated" d="M84 1329q0 63 8 98q12 54 41 54q42 0 121 -79q69 -71 155 -186q76 -102 150 -220l103 -166q45 -75 92 -169q68 136 93 275q23 121 23 309l-58 34q0 66 11.5 120t32.5 99l24 -6q4 -44 48 -70q24 -14 62 -32t58 -26l-48 -182l-60 29l2 -92q0 -135 -34 -263 q-37 -139 -118 -275q38 -71 53 -111q24 -64 24 -130q0 -37 -2 -63.5t-10 -61.5q-107 -24 -228.5 -37.5t-236.5 -13.5q1 19 1 32q5 77 24 142q172 92 290 239q-71 133 -103 189q-35 60 -120 188q-32 44 -56 70q-33 35 -52 35q-13 0 -44 -15q-16 -8 -27 -8q-22 0 -70 45 q-41 39 -87 97q-36 46 -49 77t-13 74zM346 -229q0 46 101 82q-31 16 -47 31q-21 19 -21 40q0 32 53 88q60 63 105 63q21 0 35.5 -14t14.5 -36q0 -14 -6 -28.5t-17 -32.5q-32 28 -68 28q-22 0 -44 -9t-22 -21q0 -16 47 -42t81 -26q22 0 31.5 1.5t39.5 13.5q0 -25 -31 -45 q-21 -13 -64 -29zM530 326q119 0 170 7q86 12 86 48q0 22 -8.5 45.5t-38.5 78.5q-30 -39 -90 -90.5t-119 -88.5z" />
<glyph unicode="&#xfefa;" horiz-adv-x="1242" arabic-form="final" d="M75 244v29q271 82 405 141q215 95 326 219q134 150 134 355q0 99 -12.5 184.5t-34.5 175.5l33 85q20 50 38 84q26 -145 49 -314q16 -116 31 -250q20 -163 34 -263q18 -127 54 -182q24 -36 49 -36h61v-176h-61q-85 0 -137 92q-61 111 -61 336q0 16 -3.5 43.5t-3.5 34.5 q-97 -270 -173 -370q-90 -117 -254 -155q-139 -33 -474 -33zM121 1417q0 64 42 64q72 0 227 -92q173 -102 290 -239q144 -166 144 -326q0 -20 -2 -34t-10 -36q-57 127 -168 261q-123 149 -194 149q-15 0 -30 -26.5t-35 -26.5q-27 0 -86 35q-74 45 -118 103q-60 79 -60 168z M195 -229q0 46 101 82q-31 16 -48 31q-21 19 -21 40q0 32 54 88q59 63 105 63q20 0 34.5 -14t14.5 -36q0 -14 -6 -28.5t-17 -32.5q-31 28 -68 28q-22 0 -43.5 -9t-21.5 -21q0 -16 47 -42t80 -26q22 0 31.5 1.5t40.5 13.5q0 -25 -32 -45q-21 -13 -63 -29z" />
<glyph unicode="&#xfefb;" horiz-adv-x="1125" arabic-form="isolated" d="M84 1329q0 63 8 98q12 54 41 54q42 0 121 -79q69 -71 155 -186q76 -102 150 -220l103 -166q45 -75 92 -169q68 136 93 275q23 121 23 309l-58 34q0 66 11.5 120t32.5 99l24 -6q4 -44 48 -70q24 -14 62 -32t58 -26l-48 -182l-60 29l2 -92q0 -135 -34 -263 q-37 -139 -118 -275q38 -71 53 -111q24 -64 24 -130q0 -37 -2 -63.5t-10 -61.5q-107 -24 -228.5 -37.5t-236.5 -13.5q1 19 1 32q5 77 24 142q172 92 290 239q-71 133 -103 189q-35 60 -120 188q-32 44 -56 70q-33 35 -52 35q-13 0 -44 -15q-16 -8 -27 -8q-22 0 -70 45 q-41 39 -87 97q-36 46 -49 77t-13 74zM530 326q119 0 170 7q86 12 86 48q0 22 -8.5 45.5t-38.5 78.5q-30 -39 -90 -90.5t-119 -88.5z" />
<glyph unicode="&#xfefc;" horiz-adv-x="1242" arabic-form="final" d="M75 244v29q271 82 405 141q215 95 326 219q134 150 134 355q0 99 -12.5 184.5t-34.5 175.5l33 85q20 50 38 84q26 -145 49 -314q16 -116 31 -250q20 -163 34 -263q18 -127 54 -182q24 -36 49 -36h61v-176h-61q-85 0 -137 92q-61 111 -61 336q0 16 -3.5 43.5t-3.5 34.5 q-97 -270 -173 -370q-90 -117 -254 -155q-139 -33 -474 -33zM121 1417q0 64 42 64q72 0 227 -92q173 -102 290 -239q144 -166 144 -326q0 -20 -2 -34t-10 -36q-57 127 -168 261q-123 149 -194 149q-15 0 -30 -26.5t-35 -26.5q-27 0 -86 35q-74 45 -118 103q-60 79 -60 168z " />
<glyph unicode="&#xd;" horiz-adv-x="574" />
<glyph unicode=" "  horiz-adv-x="574" />
<glyph unicode="&#x09;" horiz-adv-x="574" />
<glyph unicode="&#xa0;" horiz-adv-x="574" />
<glyph unicode="!" horiz-adv-x="574" d="M178 1152v329h225v-329l-53 -784h-117zM186 0v207h209v-207h-209z" />
<glyph unicode="&#x22;" horiz-adv-x="734" d="M95 1238v243h207v-243l-45 -282h-112zM430 1238v243h207v-243l-48 -282h-109z" />
<glyph unicode="#" horiz-adv-x="1150" d="M21 405v151h201l75 366h-276v151h306l88 433h152l-88 -433h318l88 433h152l-88 -433h175v-151h-205l-76 -366h281v-151h-311l-88 -430h-151l87 430h-318l-87 -430h-152l88 430h-171zM374 556h317l76 366h-319z" />
<glyph unicode="$" horiz-adv-x="1150" d="M74 411l183 34q21 -146 74 -215q77 -97 184 -108v579q-112 21 -229 87q-87 48 -134 134t-47 195q0 194 137 314q92 81 273 99v87h107v-87q159 -15 252 -93q119 -99 143 -271l-188 -29q-16 107 -67 164t-140 76v-525q138 -34 182 -53q85 -37 138.5 -91t82 -127.5 t28.5 -159.5q0 -189 -120 -315t-311 -135v-184h-107v182q-136 17 -221.5 61t-147.5 142t-72 239zM287 1131q0 -93 52 -155.5t176 -99.5v503q-106 -17 -167 -85.5t-61 -162.5zM622 122q106 13 175.5 92t69.5 195q0 99 -49 159t-196 108v-554z" />
<glyph unicode="%" horiz-adv-x="1839" d="M120 1125q0 159 80 270t231 111q140 0 231 -99.5t91 -292.5q0 -188 -92 -289.5t-228 -101.5q-134 0 -223.5 100t-89.5 302zM279 1107q0 -142 45.5 -200.5t111.5 -58.5q69 0 114 59t45 214q0 144 -45.5 202t-113.5 58q-67 0 -112 -58.5t-45 -215.5zM437 -55l810 1561h148 l-807 -1561h-151zM1078 347q0 160 79.5 270.5t232.5 110.5q139 0 230.5 -99.5t91.5 -292.5q0 -188 -92.5 -289.5t-228.5 -101.5q-135 0 -224 100.5t-89 301.5zM1236 329q0 -141 45.5 -199.5t112.5 -58.5q69 0 114 58.5t45 213.5q0 144 -45.5 202t-112.5 58q-69 0 -114 -58.5 t-45 -215.5z" />
<glyph unicode="&#x26;" horiz-adv-x="1379" d="M89 408q0 137 88.5 248t263.5 194q-100 116 -133 187.5t-33 138.5q0 133 104.5 231.5t262.5 98.5q152 0 248.5 -93t96.5 -223q0 -211 -280 -361l266 -338q45 89 70 206l189 -41q-48 -193 -131 -319q102 -135 231 -227l-122 -144q-110 70 -227 209q-90 -100 -196 -150 t-229 -50q-228 0 -361 153q-108 126 -108 280zM285 419q0 -90 71.5 -187t203.5 -97q81 0 168.5 51t140.5 132l-334 413q-147 -88 -198.5 -163t-51.5 -149zM462 1193q0 -35 17.5 -72.5t52.5 -80.5l81 -94q118 70 153 122.5t35 116.5q0 75 -48 123t-120 48q-73 0 -122 -47.5 t-49 -115.5z" />
<glyph unicode="'" horiz-adv-x="394" d="M91 1233v248h207v-248l-49 -277h-112z" />
<glyph unicode="(" horiz-adv-x="688" d="M125 536q0 241 78 461q91 255 281 509h130q-122 -210 -162 -300q-61 -139 -96 -291q-44 -189 -44 -380q0 -486 302 -970h-130q-151 190 -255 444.5t-104 526.5z" />
<glyph unicode=")" horiz-adv-x="688" d="M125 -435q302 484 302 970q0 190 -43 377q-35 152 -96 291q-40 91 -163 303h131q189 -254 280 -509q78 -220 78 -461q0 -272 -104.5 -526.5t-253.5 -444.5h-131z" />
<glyph unicode="*" horiz-adv-x="804" d="M65 1209l46 143q161 -56 233 -98q-19 183 -20 252h147q-3 -100 -24 -251q104 53 239 97l46 -143q-128 -42 -251 -57q61 -53 173 -190l-121 -86q-58 79 -138 217q-75 -143 -131 -217l-120 86q118 144 168 190q-130 26 -247 57z" />
<glyph unicode="+" horiz-adv-x="1207" d="M115 645v170h403v403h172v-403h403v-170h-403v-406h-172v406h-403z" />
<glyph unicode="," horiz-adv-x="574" d="M172 -215q57 25 84.5 74t30.5 141h-103v207h207v-207q0 -114 -40.5 -184.5t-128.5 -108.5z" />
<glyph unicode="-" horiz-adv-x="688" d="M66 444v183h558v-183h-558z" />
<glyph unicode="." horiz-adv-x="574" d="M188 0v207h207v-207h-207z" />
<glyph unicode="/" horiz-adv-x="574" d="M0 -25l429 1531h146l-429 -1531h-146z" />
<glyph unicode="0" horiz-adv-x="1150" d="M86 730q0 263 54 423t160.5 247t268.5 87q119 0 209 -48t148.5 -138.5t91.5 -220.5t33 -350q0 -260 -53.5 -420.5t-160 -247.5t-268.5 -87q-214 0 -337 153q-146 185 -146 602zM273 730q0 -364 85 -485t211 -121q125 0 210.5 121.5t85.5 484.5q0 366 -85.5 486 t-212.5 120q-126 0 -200 -106q-94 -135 -94 -500z" />
<glyph unicode="1" horiz-adv-x="1150" d="M225 939v176q153 72 267 174t161 198h118v-1487h-182v1158q-66 -62 -172.5 -124.5t-191.5 -94.5z" />
<glyph unicode="2" horiz-adv-x="1150" d="M63 0q-2 66 21 126q37 100 119.5 197t237.5 224q242 198 326.5 314t84.5 219q0 108 -77 182t-201 74q-132 0 -210.5 -78.5t-79.5 -218.5l-187 19q19 210 144.5 319.5t336.5 109.5q213 0 337 -118.5t124 -292.5q0 -89 -36 -175t-120.5 -181t-280.5 -260 q-164 -138 -210.5 -187t-76.5 -98h726v-175h-978z" />
<glyph unicode="3" horiz-adv-x="1150" d="M87 391l182 24q31 -154 106 -222.5t184 -68.5q128 0 216.5 89t88.5 220q0 126 -82 207t-208 81q-52 0 -129 -20l21 160q18 -3 29 -3q116 0 209 61t93 187q0 100 -67.5 165.5t-175.5 65.5q-106 0 -176.5 -66.5t-90.5 -199.5l-182 32q33 183 151.5 283.5t293.5 100.5 q122 0 224 -52t156 -142t54 -191q0 -96 -51.5 -175t-152.5 -125q131 -30 203.5 -125.5t72.5 -239.5q0 -194 -141 -328.5t-357 -134.5q-195 0 -324 116t-147 301z" />
<glyph unicode="4" horiz-adv-x="1150" d="M26 355v166l676 960h148v-960h200v-166h-200v-355h-181v355h-643zM205 521h464v668z" />
<glyph unicode="5" horiz-adv-x="1150" d="M86 388l191 16q21 -139 98 -209.5t187 -70.5q131 0 222 99t91 263q0 155 -87.5 245t-228.5 90q-88 0 -159 -40t-111 -103l-171 22l144 760h736v-173h-591l-80 -398q134 93 280 93q194 0 327.5 -134.5t133.5 -345.5q0 -201 -118 -347q-142 -180 -388 -180q-202 0 -330 113 t-146 300z" />
<glyph unicode="6" horiz-adv-x="1150" d="M78 693q0 429 158 624q139 170 373 170q175 0 286.5 -98t133.5 -271l-181 -14q-24 107 -68 155q-74 78 -182 78q-87 0 -153 -48q-85 -63 -134.5 -183t-51.5 -342q65 100 160 148.5t199 48.5q182 0 309.5 -134t127.5 -346q0 -140 -60 -259.5t-165 -183t-238 -63.5 q-227 0 -370.5 167t-143.5 551zM287 480q0 -94 40 -180t111.5 -131t150.5 -45q115 0 198 93t83 253q0 153 -82 241.5t-206 88.5q-123 0 -209 -88.5t-86 -231.5z" />
<glyph unicode="7" horiz-adv-x="1150" d="M98 1287v174h958v-141q-141 -150 -280 -399.5t-214 -513.5q-55 -186 -70 -407h-187q3 175 68.5 422.5t188.5 477t261 387.5h-725z" />
<glyph unicode="8" horiz-adv-x="1150" d="M84 428q0 145 73 242.5t209 132.5q-114 41 -168.5 118t-54.5 184q0 162 116.5 272t309.5 110q194 0 312 -113t118 -274q0 -103 -54 -179.5t-164 -117.5q136 -44 207 -143t71 -237q0 -190 -134 -319t-353 -129q-220 0 -354 129.5t-134 323.5zM271 427q0 -78 36.5 -150.5 t109.5 -112.5t157 -40q130 0 215 84t85 213q0 131 -87.5 217t-218.5 86q-129 0 -213 -85t-84 -212zM329 1111q0 -105 68 -171.5t176 -66.5q105 0 172 66t67 162q0 100 -69 168t-172 68q-104 0 -173 -66.5t-69 -159.5z" />
<glyph unicode="9" horiz-adv-x="1150" d="M86 987q0 225 132.5 362.5t332.5 137.5q145 0 264.5 -78t181.5 -222t62 -416q0 -284 -61.5 -452.5t-183 -256t-285.5 -87.5q-173 0 -283.5 96.5t-132.5 270.5l175 17q22 -124 84.5 -179.5t160.5 -55.5q84 0 147 38.5t103.5 102.5t68 173t27.5 223q0 12 -1 36 q-55 -87 -149.5 -141t-204.5 -54q-184 0 -311 133.5t-127 351.5zM273 981q0 -142 85 -230t211 -88t207 88t81 245q0 156 -83 248t-200 92q-122 0 -211.5 -99t-89.5 -256z" />
<glyph unicode=":" horiz-adv-x="574" d="M187 0v207h207v-207h-207zM187 866v207h207v-207h-207z" />
<glyph unicode=";" horiz-adv-x="574" d="M172 -215q57 25 84.5 74t30.5 141h-103v207h207v-207q0 -114 -40.5 -184.5t-128.5 -108.5zM184 866v207h207v-207h-207z" />
<glyph unicode="&#x3c;" horiz-adv-x="1207" d="M113 647v170l981 414v-181l-778 -319l778 -322v-181z" />
<glyph unicode="=" horiz-adv-x="1207" d="M115 421v170h978v-170h-978zM115 871v169h978v-169h-978z" />
<glyph unicode="&#x3e;" horiz-adv-x="1207" d="M113 228v181l777 322l-777 319v181l981 -414v-170z" />
<glyph unicode="?" horiz-adv-x="1150" d="M91 1079q25 207 150 317t330 110q217 0 346 -118t129 -286q0 -97 -45.5 -179t-177.5 -199q-89 -79 -116 -116t-40.5 -85.5t-15.5 -157.5h-174q-1 36 -1 54q0 107 30 185q22 59 72 118q36 44 130.5 127t123 132.5t28.5 108.5q0 106 -83 186t-203 80q-116 0 -194 -72.5 t-102 -227.5zM466 0v207h207v-207h-207z" />
<glyph unicode="@" horiz-adv-x="2099" d="M112 474q0 246 101 469q123 274 350 419.5t550 145.5q251 0 450 -102.5t315 -305.5q98 -175 98 -380q0 -293 -206 -520q-184 -204 -402 -204q-70 0 -113 21t-63 61q-13 25 -19 87q-66 -76 -147.5 -122t-162.5 -46q-90 0 -175 52.5t-138 161.5t-53 239q0 161 82.5 322 t204.5 242t237 81q88 0 168 -46t137 -140l34 157h181l-145 -678q-30 -142 -30 -157q0 -27 20.5 -46.5t49.5 -19.5q54 0 141 61q115 81 182 217t67 280q0 169 -86.5 315.5t-257.5 234t-378 87.5q-236 0 -431.5 -110.5t-303 -317t-107.5 -442.5q0 -248 107.5 -426.5t311 -264 t450.5 -85.5q265 0 443.5 89t267.5 216h183q-51 -106 -176.5 -216t-298 -174t-416.5 -64q-224 0 -413.5 57.5t-322.5 173t-201 266.5q-85 190 -85 412zM684 438q0 -138 65.5 -215t150.5 -77q56 0 119 34t120 100.5t93.5 169t36.5 205.5q0 138 -68.5 213.5t-166.5 75.5 q-64 0 -121.5 -32.5t-111 -105.5t-85.5 -177t-32 -191z" />
<glyph unicode="A" horiz-adv-x="1379" d="M-3 0l569 1481h211l606 -1481h-224l-172 448h-619l-163 -448h-208zM424 608h502l-154 410q-71 187 -105 307q-29 -142 -80 -283z" />
<glyph unicode="B" horiz-adv-x="1379" d="M152 0v1481h555q170 0 272.5 -45t160.5 -138.5t58 -195.5q0 -95 -51.5 -179t-155.5 -135q134 -40 206.5 -134.5t72.5 -224.5q0 -104 -44 -193.5t-109 -138t-162.5 -73t-238.5 -24.5h-564zM347 175h369q95 0 133 7q68 12 113.5 40t75 82.5t29.5 124.5q0 83 -42.5 144 t-118 86t-216.5 25h-343v-509zM347 858h321q130 0 186 18q75 22 113 73.5t38 129.5q0 73 -35.5 129.5t-101 77t-225.5 20.5h-296v-448z" />
<glyph unicode="C" horiz-adv-x="1493" d="M103 751q0 232 88.5 404t251.5 261.5t359 89.5q222 0 373.5 -113t211.5 -318l-193 -46q-52 162 -150 235.5t-246 73.5q-171 0 -285.5 -81.5t-161 -219.5t-46.5 -285q0 -188 55 -329t171 -211t252 -70q164 0 278.5 95t154.5 282l196 -49q-62 -242 -222 -368.5t-391 -126.5 q-239 0 -389 97.5t-228.5 282t-78.5 396.5z" />
<glyph unicode="D" horiz-adv-x="1493" d="M160 0v1481h510q172 0 263 -22q127 -29 217 -106q118 -99 176 -253t58 -352q0 -168 -39.5 -298.5t-101 -216t-135 -134.5t-177 -74t-237.5 -25h-534zM356 175h316q146 0 229.5 27t132.5 77q70 69 109 187t39 285q0 233 -76.5 357.5t-185.5 167.5q-79 30 -253 30h-311 v-1131z" />
<glyph unicode="E" horiz-adv-x="1379" d="M164 0v1481h1070v-175h-874v-454h819v-173h-819v-504h909v-175h-1105z" />
<glyph unicode="F" horiz-adv-x="1263" d="M170 0v1481h999v-175h-803v-459h694v-174h-694v-673h-196z" />
<glyph unicode="G" horiz-adv-x="1608" d="M110 733q0 216 90.5 403.5t260 278.5t390.5 91q161 0 291 -52t203.5 -145t111.5 -242l-176 -49q-34 113 -83.5 177.5t-141 103.5t-204.5 39q-134 0 -232 -41t-158 -107.5t-93 -146.5q-57 -137 -57 -298q0 -198 68 -331t198.5 -197.5t276.5 -64.5q128 0 249 48.5 t184 104.5v276h-436v173l628 1v-549q-145 -115 -298.5 -173t-314.5 -58q-219 0 -397 93.5t-269 270t-91 394.5z" />
<glyph unicode="H" horiz-adv-x="1493" d="M166 0v1481h196v-608h769v608h196v-1481h-196v698h-769v-698h-196z" />
<glyph unicode="I" horiz-adv-x="574" d="M193 0v1481h196v-1481h-196z" />
<glyph unicode="J" horiz-adv-x="1034" d="M60 420l176 24q7 -169 64 -232t157 -63q73 0 126.5 34t74 92t20.5 186v1020h196v-1009q0 -186 -45 -288t-142.5 -155.5t-228.5 -53.5q-195 0 -298 112q-100 108 -100 317v16z" />
<glyph unicode="K" horiz-adv-x="1379" d="M152 0v1481h195v-735l736 735h265l-621 -600l649 -881h-259l-527 749l-243 -236v-513h-195z" />
<glyph unicode="L" horiz-adv-x="1150" d="M152 0v1481h195v-1306h730v-175h-925z" />
<glyph unicode="M" horiz-adv-x="1723" d="M154 0v1481h294l351 -1049q48 -146 71 -219q25 81 78 237l355 1031h264v-1481h-189v1239l-431 -1239h-176l-429 1260v-1260h-188z" />
<glyph unicode="N" horiz-adv-x="1493" d="M158 0v1481h201l777 -1163v1163h188v-1481h-201l-778 1164v-1164h-187z" />
<glyph unicode="O" horiz-adv-x="1608" d="M100 721q0 369 198 577.5t511 208.5q205 0 369.5 -98t251 -273t86.5 -398q0 -225 -91 -402.5t-257.5 -269t-359.5 -91.5q-209 0 -373.5 101t-249.5 275.5t-85 369.5zM302 718q0 -268 144 -422t361 -154q221 0 364 155.5t143 441.5q0 181 -61 316t-179 209t-264 74 q-208 0 -358 -143t-150 -477z" />
<glyph unicode="P" horiz-adv-x="1379" d="M160 0v1481h558q148 0 225 -14q109 -19 183 -70t119 -142.5t45 -202.5q0 -188 -120.5 -319t-434.5 -131h-379v-602h-196zM356 777h382q190 0 270 70.5t80 198.5q0 93 -47 159.5t-124 87.5q-49 13 -183 13h-378v-529z" />
<glyph unicode="Q" horiz-adv-x="1608" d="M89 740q0 220 89 399.5t253 273.5t367 94q205 0 369.5 -97.5t251 -272.5t86.5 -396q0 -182 -55.5 -328t-167.5 -254q136 -94 251 -138l-57 -136q-160 57 -319 182q-164 -92 -363 -92q-201 0 -364.5 97t-252 272.5t-88.5 395.5zM291 740q0 -289 143 -443.5t365 -154.5 q105 0 198 40q-92 59 -194 85l47 142q170 -47 280 -141q173 157 173 473q0 180 -61 314.5t-179 208.5t-264 74q-219 0 -363.5 -150t-144.5 -448z" />
<glyph unicode="R" horiz-adv-x="1493" d="M163 0v1481h656q198 0 301 -40t164.5 -141t61.5 -223q0 -158 -102 -266t-315 -137q78 -38 118 -74q86 -79 163 -197l258 -403h-247l-196 308q-86 133 -141.5 204t-99.5 99t-89 39q-33 8 -109 8h-227v-658h-196zM359 827h421q134 0 210 28t115 89t39 133q0 105 -76 172.5 t-241 67.5h-468v-490z" />
<glyph unicode="S" horiz-adv-x="1379" d="M93 476l185 16q13 -111 61 -182.5t149 -115.5t227 -44q112 0 198 33.5t128 91.5t42 127q0 70 -40.5 122t-133.5 87q-60 23 -264 72t-285 93q-106 55 -158.5 137.5t-52.5 184.5q0 112 64 209.5t186 148t272 50.5q164 0 290 -53t193.5 -156t72.5 -233l-188 -15 q-15 141 -102.5 212.5t-257.5 71.5q-178 0 -259.5 -65t-81.5 -157q0 -80 58 -131q56 -52 295 -106t328 -94q129 -60 191 -151.5t62 -210.5q0 -118 -68 -222.5t-194.5 -162.5t-285.5 -58q-201 0 -337 58.5t-213 176t-81 266.5z" />
<glyph unicode="T" horiz-adv-x="1263" d="M48 1306v175h1174v-175h-490v-1306h-196v1306h-488z" />
<glyph unicode="U" horiz-adv-x="1493" d="M163 625v856h196v-855q0 -193 35.5 -284.5t123 -140.5t213.5 -49q216 0 308 97.5t92 376.5v855h196v-856q0 -223 -50.5 -354.5t-182 -213.5t-346.5 -82q-208 0 -340 71.5t-188.5 207.5t-56.5 371z" />
<glyph unicode="V" horiz-adv-x="1379" d="M9 1481h212l385 -1076q46 -129 78 -242q34 121 80 242l400 1076h200l-580 -1481h-201z" />
<glyph unicode="W" horiz-adv-x="1952" d="M25 1481h201l225 -971q37 -152 63 -303q57 237 67 274l282 1000h236l212 -750q80 -279 115 -524q28 140 74 322l232 952h197l-406 -1481h-189l-312 1128q-39 142 -46 174q-24 -102 -44 -174l-314 -1128h-200z" />
<glyph unicode="X" horiz-adv-x="1379" d="M9 0l573 772l-505 709h233l269 -380q84 -118 119 -182q49 81 117 169l298 393h213l-520 -698l561 -783h-243l-373 528q-31 46 -64 99q-50 -81 -71 -111l-372 -516h-235z" />
<glyph unicode="Y" horiz-adv-x="1379" d="M6 1481h238l292 -447q81 -125 151 -250q66 116 161 261l287 436h229l-591 -854v-627h-196v627z" />
<glyph unicode="Z" horiz-adv-x="1263" d="M41 0v182l759 948q81 101 153 176h-826v175h1061v-175l-831 -1027l-90 -104h945v-175h-1171z" />
<glyph unicode="[" horiz-adv-x="574" d="M140 -411v1892h401v-151h-219v-1591h219v-150h-401z" />
<glyph unicode="\" horiz-adv-x="574" d="M0 1506h146l429 -1531h-146z" />
<glyph unicode="]" horiz-adv-x="574" d="M39 -261h220v1591h-220v151h401v-1892h-401v150z" />
<glyph unicode="^" horiz-adv-x="970" d="M55 697l356 809h147l358 -809h-183l-249 603l-243 -603h-186z" />
<glyph unicode="_" horiz-adv-x="1150" d="M-31 -280h1205v-131h-1205v131z" />
<glyph unicode="`" horiz-adv-x="688" d="M90 1489h243l137 -283h-147z" />
<glyph unicode="a" horiz-adv-x="1150" d="M75 283q0 79 35.5 144t94 104.5t130.5 59.5q54 14 162 27q220 26 324 63q1 37 1 47q0 111 -51 157q-70 61 -207 61q-129 0 -190 -45t-90 -159l-178 25q24 114 79.5 184t160.5 108t244 38q137 0 223 -32.5t126.5 -81.5t56.5 -123q9 -47 9 -168v-243q0 -253 11.5 -320 t46.5 -129h-190q-29 57 -37 132q-101 -86 -194.5 -121t-200.5 -35q-176 0 -271 86t-95 221zM269 288q0 -73 55 -121.5t161 -48.5q105 0 186.5 46t120.5 126q29 61 29 182v66q-99 -40 -297 -68q-112 -17 -158.5 -37t-71.5 -59t-25 -86z" />
<glyph unicode="b" horiz-adv-x="1150" d="M112 0v1481h182v-529q115 145 294 145q99 0 187.5 -40t145.5 -112t89 -174t32 -219q0 -275 -136 -425.5t-327 -150.5q-190 0 -298 158v-134h-169zM279 544q0 -193 52 -278q86 -141 233 -141q119 0 205.5 103.5t86.5 308.5q0 210 -83 310t-201 100q-120 0 -206.5 -103.5 t-86.5 -299.5z" />
<glyph unicode="c" horiz-adv-x="1034" d="M81 532q0 174 57.5 304.5t175 195.5t256.5 65q174 0 285.5 -88.5t142.5 -250.5l-177 -28q-25 108 -89 162.5t-155 54.5q-138 0 -223.5 -98.5t-85.5 -311.5q0 -216 82.5 -314t216.5 -98q107 0 178.5 66t90.5 202l179 -23q-29 -185 -150 -289.5t-296 -104.5 q-221 0 -354.5 144t-133.5 412z" />
<glyph unicode="d" horiz-adv-x="1150" d="M71 535q0 161 53.5 291.5t160.5 200.5t239 70q97 0 173 -41t123 -107v532h181v-1481h-169v135q-102 -159 -300 -159q-128 0 -235.5 70.5t-166.5 197.5t-59 291zM258 535q0 -206 86.5 -308t204.5 -102q120 0 203 97.5t83 297.5q0 220 -84.5 323t-209.5 103 q-121 0 -202 -99t-81 -312z" />
<glyph unicode="e" horiz-adv-x="1150" d="M76 527q0 271 139.5 420.5t361.5 149.5q215 0 351.5 -146.5t136.5 -412.5q0 -16 -1 -48h-800q10 -177 99.5 -271t224.5 -94q100 0 170.5 52.5t112.5 167.5l187 -23q-44 -164 -164 -255t-307 -91q-236 0 -373.5 145t-137.5 406zM274 639h599q-12 136 -69 203 q-87 105 -225 105q-126 0 -211 -83.5t-94 -224.5z" />
<glyph unicode="f" horiz-adv-x="574" d="M19 931v142h161v114q0 108 19 160q26 71 92.5 115t185.5 44q76 0 169 -18l-27 -159q-56 10 -107 10q-83 0 -117 -35t-34 -132v-99h209v-142h-209v-931h-181v931h-161z" />
<glyph unicode="g" horiz-adv-x="1150" d="M67 542q0 154 55.5 283.5t161 200.5t247.5 71q190 0 313 -154v130h168v-928q0 -250 -51 -354.5t-161.5 -165t-272.5 -60.5q-192 0 -310 86q-114 83 -114 249v11l177 -26q11 -82 61 -119q68 -51 185 -51q126 0 195 50.5t93 141.5q13 52 13 210v23q-119 -140 -297 -140 q-221 0 -342 159.5t-121 382.5zM254 556q0 -212 83.5 -309t209.5 -97t210.5 96.5t84.5 302.5q0 197 -87 297t-211 100q-121 0 -205.5 -98.5t-84.5 -291.5z" />
<glyph unicode="h" horiz-adv-x="1150" d="M136 0v1481h182v-532q127 148 321 148q120 0 207.5 -47t125.5 -130t38 -240v-680h-182v680q0 136 -59 198t-167 62q-81 0 -152 -42t-101.5 -113.5t-30.5 -197.5v-587h-182z" />
<glyph unicode="i" horiz-adv-x="459" d="M137 0v1073h182v-1073h-182zM137 1272v209h182v-209h-182z" />
<glyph unicode="j" horiz-adv-x="459" d="M-95 -416l34 154q55 -14 86 -14q56 0 83 37t27 184v1128h182v-1132q0 -198 -51 -275q-66 -101 -219 -101q-73 0 -142 19zM135 1270v211h182v-211h-182z" />
<glyph unicode="k" horiz-adv-x="1034" d="M137 0v1481h182v-845l430 437h236l-410 -398l451 -675h-224l-355 548l-128 -123v-425h-182z" />
<glyph unicode="l" horiz-adv-x="459" d="M132 0v1481h182v-1481h-182z" />
<glyph unicode="m" horiz-adv-x="1723" d="M136 0v1073h163v-151q50 79 134 127t191 48q119 0 195.5 -49.5t107.5 -138.5q127 188 331 188q160 0 246 -88.5t86 -272.5v-736h-181v676q0 109 -17.5 157t-64 77t-109.5 29q-113 0 -188 -75t-75 -241v-623h-181v697q0 121 -44.5 181.5t-145.5 60.5q-77 0 -142 -40.5 t-94.5 -118t-29.5 -223.5v-557h-182z" />
<glyph unicode="n" horiz-adv-x="1150" d="M136 0v1073h164v-153q118 177 341 177q97 0 178.5 -35t122 -91.5t56.5 -134.5q10 -50 10 -176v-660h-182v652q0 112 -21 167t-75 87.5t-127 32.5q-116 0 -200.5 -73.5t-84.5 -279.5v-586h-182z" />
<glyph unicode="o" horiz-adv-x="1166" d="M81 536q0 298 165 442q139 119 338 119q221 0 361.5 -145t140.5 -401q0 -207 -62 -325.5t-181 -184t-259 -65.5q-225 0 -364 144.5t-139 415.5zM268 536q0 -206 89.5 -308.5t226.5 -102.5q135 0 225 103t90 314q0 199 -90.5 301.5t-224.5 102.5q-137 0 -226.5 -102 t-89.5 -308z" />
<glyph unicode="p" horiz-adv-x="1092" d="M81 -411v1484h165v-140q59 82 132.5 123t179.5 41q137 0 242 -71t158.5 -199.5t53.5 -282.5q0 -164 -59 -296t-171.5 -202t-237.5 -70q-91 0 -163 38.5t-118 96.5v-522h-182zM245 530q0 -207 84 -306t203 -99q121 0 207.5 102.5t86.5 317.5q0 205 -84 307t-202 102 q-116 0 -205.5 -108.5t-89.5 -315.5z" />
<glyph unicode="q" horiz-adv-x="1090" d="M81 546q0 162 56 290.5t162.5 194.5t233.5 66q199 0 313 -168v144h164v-1484h-182v525q-42 -59 -118.5 -98.5t-162.5 -39.5q-190 0 -328 152.5t-138 417.5zM268 539q0 -207 86.5 -310.5t208.5 -103.5q116 0 199.5 98.5t83.5 299.5q0 214 -88 319t-208 105 q-118 0 -200 -97.5t-82 -310.5z" />
<glyph unicode="r" horiz-adv-x="688" d="M134 0v1073h164v-163q63 114 116 150.5t116 36.5q92 0 187 -59l-63 -168q-66 39 -133 39q-59 0 -106.5 -36t-68.5 -99q-30 -97 -30 -212v-562h-182z" />
<glyph unicode="s" horiz-adv-x="1034" d="M64 320l179 28q16 -108 85 -165.5t193 -57.5q125 0 186 51t61 120q0 62 -54 97q-37 24 -186 61q-200 51 -277 88t-117 102t-40 144q0 72 33 133t89 101q43 31 116 53t157 22q126 0 221.5 -36.5t141 -98.5t62.5 -166l-178 -24q-12 82 -70 128.5t-164 46.5 q-125 0 -178.5 -41t-53.5 -97q0 -35 22 -64t70 -48q27 -10 160 -47q193 -51 269.5 -84t119.5 -95.5t43 -155.5q0 -91 -53 -171t-153 -124t-226 -44q-209 0 -318.5 86.5t-139.5 257.5z" />
<glyph unicode="t" horiz-adv-x="574" d="M36 931v142h134v265l180 109v-374h183v-142h-183v-627q0 -78 10 -100t31.5 -35t61.5 -13q31 0 80 7l27 -161q-77 -16 -138 -16q-99 0 -153.5 31t-76.5 82t-22 215v617h-134z" />
<glyph unicode="u" horiz-adv-x="1150" d="M132 408v665h182v-595q0 -143 11 -192q17 -72 72.5 -113t137.5 -41t154 42t101.5 114.5t29.5 209.5v575h182v-1073h-163v158q-125 -182 -340 -182q-95 0 -177.5 36t-122 91.5t-56.5 134.5q-11 54 -11 170z" />
<glyph unicode="v" horiz-adv-x="1034" d="M26 1073h192l230 -643q38 -104 69 -216q24 85 68 204l238 655h187l-406 -1073h-170z" />
<glyph unicode="w" horiz-adv-x="1493" d="M6 1073h188l171 -620l63 -230q4 17 56 221l170 629h187l161 -623l53 -205l62 207l184 621h177l-336 -1073h-189l-170 642l-42 183l-217 -825h-190z" />
<glyph unicode="x" horiz-adv-x="1034" d="M15 0l392 558l-363 515h228l164 -252q47 -72 75 -120q45 67 82 118l181 254h217l-371 -505l399 -568h-223l-220 333l-59 90l-282 -423h-220z" />
<glyph unicode="y" horiz-adv-x="1034" d="M33 1073h196l223 -622q44 -118 78 -248q32 125 75 244l229 626h182l-408 -1091q-66 -177 -102 -244q-48 -89 -111 -131t-150 -42q-52 0 -117 22l-20 171q60 -17 104 -17q61 0 97 20.5t60 56.5q17 27 55 136q5 15 16 44z" />
<glyph unicode="z" horiz-adv-x="1034" d="M40 0v147l683 784q-116 -6 -205 -6h-437v148h876v-121l-580 -680l-112 -125q122 10 229 10h496v-157h-950z" />
<glyph unicode="{" horiz-adv-x="690" d="M58 453v165q77 2 126 42t65.5 109.5t17.5 238.5t6 222q9 85 33.5 136.5t61 82.5t93.5 47q38 10 125 10h56v-159h-31q-105 0 -139.5 -37.5t-34.5 -169.5q0 -264 -11 -334q-18 -108 -62 -166.5t-138 -104.5q111 -46 161 -141.5t50 -312.5q0 -197 4 -235q8 -68 41 -95.5 t129 -27.5h31v-158h-56q-99 0 -144 16q-64 23 -106.5 75t-55 132t-13.5 261.5t-17.5 251.5t-65.5 110t-126 42z" />
<glyph unicode="|" horiz-adv-x="537" d="M190 -435v1941h158v-1941h-158z" />
<glyph unicode="}" horiz-adv-x="690" d="M47 -277h32q105 0 139 38t34 170q0 253 10 320q16 113 64.5 180t137.5 104q-117 56 -164.5 147.5t-47.5 308.5q0 197 -5 235q-7 68 -39.5 94.5t-128.5 26.5h-32v159h57q99 0 143 -16q65 -22 107.5 -75t55 -132.5t13.5 -261.5t17.5 -251t65 -109.5t126.5 -42.5v-165 q-78 -2 -126.5 -42t-65 -109.5t-17.5 -238t-6 -222.5q-9 -85 -33.5 -136t-61 -82t-93.5 -47q-38 -11 -125 -11h-57v158z" />
<glyph unicode="~" horiz-adv-x="1207" d="M88 563v207q107 121 281 121q60 0 127 -18t190 -70q69 -29 104 -38.5t71 -9.5q65 0 135.5 39.5t124.5 99.5v-214q-65 -61 -131 -88t-149 -27q-60 0 -115 14t-175 67.5t-200 53.5q-64 0 -121 -28t-142 -109z" />
<glyph unicode="&#xa1;" horiz-adv-x="688" d="M234 -80l53 784h117l56 -784v-328h-226v328zM242 866v207h209v-207h-209z" />
<glyph unicode="&#xa2;" horiz-adv-x="1150" d="M108 531q0 180 59 309t177 193.5t240 64.5q36 0 101 -8l114 391l111 -33l-113 -391q100 -43 153.5 -116t74.5 -183l-177 -28q-26 113 -97 173l-224 -774q34 -9 62 -9q105 0 181 72t94 201l180 -20q-33 -187 -157.5 -294t-294.5 -107q-50 0 -104 14l-119 -399l-113 32 l116 402q-116 56 -190 185.5t-74 324.5zM295 540q0 -133 32.5 -225t91.5 -136l225 770q-32 3 -50 3q-83 0 -155 -45.5t-108 -142t-36 -224.5z" />
<glyph unicode="&#xa3;" horiz-adv-x="1150" d="M27 146q97 54 165 153.5t68 242.5q0 62 -18 126h-198v149h156q-33 113 -42.5 165t-9.5 102q0 210 156 328q125 94 303 94q183 0 301.5 -100.5t145.5 -282.5l-180 -27q-16 121 -91 190.5t-180 69.5q-112 0 -186.5 -72t-74.5 -174q0 -112 58 -293h318v-149h-287 q19 -45 19 -89q0 -88 -41.5 -186t-137.5 -200q79 22 145 22q84 0 189 -25q174 -42 235 -42q75 0 194 57l59 -167q-93 -39 -144 -51t-102 -12q-42 0 -85 8q-28 5 -131.5 37t-133.5 38q-48 8 -95 8q-73 0 -155 -25.5t-150 -68.5z" />
<glyph unicode="&#xa4;" horiz-adv-x="1150" d="M75 358l140 137q-72 111 -72 238t72 238l-140 137l116 120l140 -140q107 72 240 72t239 -72l140 140l118 -120l-141 -137q72 -111 72 -238t-72 -238l141 -137l-118 -121l-140 142q-106 -74 -239 -74t-240 74l-140 -142zM308 733q0 -109 77 -185.5t185 -76.5t184.5 76.5 t76.5 185.5q0 108 -76 185t-185 77q-108 0 -185 -77t-77 -185z" />
<glyph unicode="&#xa5;" horiz-adv-x="1150" d="M-3 1481h202l293 -521q49 -89 77 -156q23 53 82 165l277 512h216l-409 -718h345v-150h-416v-144h416v-141h-416v-328h-182v328h-419v141h419v144h-419v150h344z" />
<glyph unicode="&#xa6;" horiz-adv-x="537" d="M190 364h158v-799h-158v799zM190 708v798h158v-798h-158z" />
<glyph unicode="&#xa7;" horiz-adv-x="1150" d="M82 650q0 97 60.5 176t166.5 110q-72 69 -101 127t-29 124q0 129 101 224t267 95q189 0 295 -90t128 -261l-189 -19q-21 123 -74.5 171.5t-142.5 48.5q-93 0 -150 -50t-57 -110q0 -53 36 -97q56 -69 309 -222q159 -97 214 -143q72 -60 105.5 -125t33.5 -140 q0 -114 -73 -195q-43 -47 -156 -94q81 -62 121 -132.5t40 -151.5q0 -89 -50.5 -168t-145.5 -121t-205 -42q-193 0 -306 96.5t-136 267.5l183 27q29 -132 90.5 -185t167.5 -53q103 0 161 52.5t58 123.5q0 51 -36 95q-63 76 -344 247q-149 92 -208 144t-96.5 123t-37.5 147z M246 671q0 -64 47 -122q46 -57 209 -153q135 -80 233 -150q75 39 112 90t37 99q0 58 -53 122q-53 63 -227 170q-138 85 -206 140q-82 -47 -117 -93.5t-35 -102.5z" />
<glyph unicode="&#xa8;" horiz-adv-x="688" d="M62 1283v207h189v-207h-189zM438 1283v207h190v-207h-190z" />
<glyph unicode="&#xa9;" horiz-adv-x="1524" d="M3 743q0 199 102.5 382.5t285.5 282t375 98.5q191 0 374 -98.5t285 -282t102 -382.5q0 -197 -100.5 -378.5t-281.5 -282t-379 -100.5t-379.5 100.5t-282.5 282t-101 378.5zM129 743q0 -164 84.5 -315t236 -235.5t316.5 -84.5q164 0 315.5 84.5t235.5 235.5t84 315 q0 166 -85.5 319t-238 235.5t-311.5 82.5q-161 0 -313 -82.5t-238 -235.5t-86 -319zM367 741q0 134 50.5 232.5t143.5 148.5t214 50q134 0 223 -64.5t121 -174.5l-120 -29q-30 75 -89.5 114.5t-138.5 39.5q-117 0 -192 -82.5t-75 -237.5q0 -154 71 -233.5t185 -79.5 q90 0 159 52.5t91 142.5l124 -36q-30 -126 -128.5 -201.5t-238.5 -75.5q-178 0 -289 115t-111 319z" />
<glyph unicode="&#xaa;" horiz-adv-x="765" d="M47 975q0 48 16.5 84.5t48 64.5t82.5 46q35 11 100 21l148 22q73 14 97 20q-1 71 -14 95t-49 42t-95 18q-80 0 -119.5 -33t-48.5 -94l-138 35q12 90 88.5 150t219.5 60q165 0 234 -62q68 -62 68 -183v-242l-1 -62q0 -135 41 -185h-149q-20 40 -23 90q-123 -109 -258 -109 q-114 0 -181 62.5t-67 159.5zM198 975q0 -42 34.5 -71t96.5 -29q74 0 128.5 39t72.5 97q7 20 8 104q-53 -14 -194 -36q-90 -14 -118 -40t-28 -64z" />
<glyph unicode="&#xab;" horiz-adv-x="1150" d="M135 533l323 461h149l-264 -461l262 -460h-147zM531 533l316 461h154l-267 -461l267 -460h-154z" />
<glyph unicode="&#xac;" horiz-adv-x="1207" d="M115 871v169h978v-612h-172v443h-806z" />
<glyph unicode="&#xad;" horiz-adv-x="688" d="M66 444v183h558v-183h-558z" />
<glyph unicode="&#xae;" horiz-adv-x="1524" d="M3 743q0 199 102.5 382.5t285.5 282t375 98.5q191 0 374 -98.5t285 -282t102 -382.5q0 -197 -100.5 -378.5t-281.5 -282t-379 -100.5t-379.5 100.5t-282.5 282t-101 378.5zM129 743q0 -164 84.5 -315t236 -235.5t316.5 -84.5q164 0 315.5 84.5t235.5 235.5t84 315 q0 166 -85.5 319t-238 235.5t-311.5 82.5q-161 0 -313 -82.5t-238 -235.5t-86 -319zM431 322v820h282q144 0 209 -22.5t103.5 -79t38.5 -120.5q0 -90 -64.5 -156.5t-170.5 -74.5q44 -18 70 -44q49 -48 121 -162l100 -161h-162l-72 129q-86 153 -139 191q-36 29 -106 29h-77 v-349h-133zM564 784h160q115 0 157 34t42 91q0 36 -20 65t-56 43t-133 14h-150v-247z" />
<glyph unicode="&#xaf;" horiz-adv-x="1142" d="M-31 1582v130h1205v-130h-1205z" />
<glyph unicode="&#xb0;" horiz-adv-x="827" d="M129 1226q0 116 82.5 198t197.5 82q117 0 199 -82t82 -198t-82.5 -198.5t-198.5 -82.5q-115 0 -197.5 82t-82.5 199zM239 1226q0 -71 50 -121t121 -50q70 0 120 50t50 121t-50 121t-120 50q-71 0 -121 -50t-50 -121z" />
<glyph unicode="&#xb1;" horiz-adv-x="1135" d="M79 0v170h977v-170h-977zM79 670v168h403v403h171v-403h403v-168h-403v-407h-171v407h-403z" />
<glyph unicode="&#xb2;" horiz-adv-x="688" d="M25 740q6 58 48 115q63 87 208.5 192.5t172.5 136.5q38 41 38 85q0 48 -35.5 79.5t-104.5 31.5q-66 0 -99 -24t-54 -91l-153 16q30 112 102 165t208 53q152 0 223 -59.5t71 -145.5q0 -85 -59 -161q-46 -56 -207 -172q-84 -62 -119 -98h389v-123h-629z" />
<glyph unicode="&#xb3;" horiz-adv-x="688" d="M33 938l148 15q20 -60 52 -82q44 -31 103 -31q72 0 115.5 39.5t43.5 95.5q0 50 -36.5 80.5t-124.5 30.5q-12 0 -33 -2q-14 -1 -22 -1l22 111q82 -1 120 29t38 74q0 37 -30.5 63.5t-90.5 26.5q-56 0 -88 -22.5t-55 -80.5l-145 23q42 107 105 149.5t184 42.5q146 0 212 -54 t66 -135q0 -56 -36 -99t-103 -63q90 -22 132 -73t42 -120q0 -93 -79.5 -163t-227.5 -70q-141 0 -215.5 56t-96.5 160z" />
<glyph unicode="&#xb4;" horiz-adv-x="688" d="M224 1206l135 283h238l-222 -283h-151z" />
<glyph unicode="&#xb5;" horiz-adv-x="1191" d="M162 -411v1484h179v-455q0 -247 26.5 -320.5t85.5 -116t136 -42.5q81 0 144.5 44.5t89.5 115t26 316.5v458h179v-1073h-162v127q-53 -81 -104 -111q-71 -41 -165 -41q-84 0 -149 33q-48 25 -107 100v-519h-179z" />
<glyph unicode="&#xb6;" horiz-adv-x="1111" d="M1 1054q0 195 121.5 311t356.5 116h639v-175h-145v-1717h-172v1717h-225v-1717h-167v1055q-189 10 -298.5 123t-109.5 287z" />
<glyph unicode="&#xb7;" horiz-adv-x="574" d="M187 625v207h207v-207h-207z" />
<glyph unicode="&#xb8;" horiz-adv-x="688" d="M108 -413l11 118q65 -4 95 -4q95 0 133 26q30 21 30 50q0 18 -11.5 32t-43 24t-104.5 11l53 179h135l-33 -108q86 -10 129 -53t43 -95q0 -76 -72.5 -134t-218.5 -58q-83 0 -146 12z" />
<glyph unicode="&#xb9;" horiz-adv-x="688" d="M108 1186v124q63 20 139.5 73.5t124.5 115.5h109v-759h-147v560q-103 -82 -226 -114z" />
<glyph unicode="&#xba;" horiz-adv-x="755" d="M45 1122q0 182 92.5 283t239.5 101q146 0 238.5 -101t92.5 -279q0 -177 -93 -278t-237 -101q-147 0 -240 99t-93 276zM195 1126q0 -127 51 -186t131 -59q81 0 131.5 59t50.5 191q0 123 -51 182t-131 59q-82 0 -132 -58t-50 -188z" />
<glyph unicode="&#xbb;" horiz-adv-x="1150" d="M141 73l267 460l-267 461h153l317 -461l-317 -460h-153zM535 994h150l322 -461l-322 -460h-149l263 460z" />
<glyph unicode="&#xbc;" horiz-adv-x="1725" d="M108 1186v124q63 20 139.5 73.5t124.5 115.5h109v-759h-147v560q-103 -82 -226 -114zM255 -58l1113 1564h157l-1112 -1564h-158zM1057 124v124l410 479h123v-494h105v-109h-105v-155h-146v155h-387zM1212 233h232v266z" />
<glyph unicode="&#xbd;" horiz-adv-x="1725" d="M108 1186v124q63 20 139.5 73.5t124.5 115.5h109v-759h-147v560q-103 -82 -226 -114zM230 -58l1112 1564h159l-1112 -1564h-159zM1059 -31q7 56 49 114q63 88 208 193t173 136q37 41 37 85q0 48 -35 79t-104 31q-67 0 -100 -23.5t-54 -90.5l-152 15q29 113 101.5 166 t207.5 53q152 0 223.5 -59.5t71.5 -145.5q0 -85 -60 -160q-45 -57 -206 -174q-85 -62 -120 -97h390v-122h-630z" />
<glyph unicode="&#xbe;" horiz-adv-x="1725" d="M33 938l148 15q20 -60 52 -82q44 -31 103 -31q72 0 115.5 39.5t43.5 95.5q0 50 -36.5 80.5t-121.5 30.5q-50 -3 -58 -3l22 111q82 -1 120 29t38 74q0 37 -30.5 63.5t-90.5 26.5q-56 0 -88 -22.5t-55 -80.5l-145 23q42 107 105 149.5t184 42.5q146 0 212 -54t66 -135 q0 -56 -36 -99t-103 -63q90 -22 132 -73t42 -120q0 -93 -79.5 -163t-227.5 -70q-141 0 -215.5 56t-96.5 160zM255 -58l1112 1564h158l-1112 -1564h-158zM1057 124v124l409 479h124v-494h105v-109h-105v-155h-147v155h-386zM1212 233h231v266z" />
<glyph unicode="&#xbf;" horiz-adv-x="1263" d="M160 -29q0 98 44.5 178.5t177.5 197.5q90 80 117 117.5t39.5 86t14.5 157.5h175q1 -34 1 -52q0 -111 -30 -188q-22 -59 -72 -119q-36 -43 -130.5 -126t-122.5 -132.5t-28 -107.5q0 -107 83 -187t203 -80q115 0 193.5 73t102.5 226l186 -21q-25 -205 -150 -316t-329 -111 q-218 0 -346.5 118t-128.5 286zM533 866v207h207v-207h-207z" />
<glyph unicode="&#xc0;" horiz-adv-x="1379" d="M-3 0l569 1481h211l606 -1481h-224l-172 448h-619l-163 -448h-208zM424 608h502l-154 410q-71 187 -105 307q-29 -142 -80 -283zM453 1855h243l137 -283h-147z" />
<glyph unicode="&#xc1;" horiz-adv-x="1379" d="M-3 0l569 1481h211l606 -1481h-224l-172 448h-619l-163 -448h-208zM424 608h502l-154 410q-71 187 -105 307q-29 -142 -80 -283zM546 1572l135 283h238l-222 -283h-151z" />
<glyph unicode="&#xc2;" horiz-adv-x="1379" d="M-3 0l569 1481h211l606 -1481h-224l-172 448h-619l-163 -448h-208zM348 1572l218 283h194l228 -283h-206l-112 172l-114 -172h-208zM424 608h502l-154 410q-71 187 -105 307q-29 -142 -80 -283z" />
<glyph unicode="&#xc3;" horiz-adv-x="1379" d="M-3 0l569 1481h211l606 -1481h-224l-172 448h-619l-163 -448h-208zM352 1571q-1 105 58 168q57 62 147 62q63 0 171 -54q59 -30 95 -30q32 0 49 17.5t24 69.5h132q-3 -115 -58 -172.5t-140 -57.5q-64 0 -168 57q-68 36 -99 36q-34 0 -55 -24q-23 -24 -22 -72h-134z M424 608h502l-154 410q-71 187 -105 307q-29 -142 -80 -283z" />
<glyph unicode="&#xc4;" horiz-adv-x="1379" d="M-3 0l569 1481h211l606 -1481h-224l-172 448h-619l-163 -448h-208zM383 1572v207h189v-207h-189zM424 608h502l-154 410q-71 187 -105 307q-29 -142 -80 -283zM759 1572v207h190v-207h-190z" />
<glyph unicode="&#xc5;" horiz-adv-x="1379" d="M-3 0l569 1481h211l606 -1481h-224l-172 448h-619l-163 -448h-208zM424 608h502l-154 410q-71 187 -105 307q-29 -142 -80 -283zM486 1617q0 74 54 127.5t127 53.5q75 0 128.5 -54t53.5 -131t-53.5 -130.5t-127.5 -53.5q-75 0 -128.5 54t-53.5 134zM562 1616 q0 -47 32 -79.5t75 -32.5q44 0 75.5 32.5t31.5 77.5q0 46 -31 78t-76 32q-43 0 -75 -31.5t-32 -76.5z" />
<glyph unicode="&#xc6;" horiz-adv-x="2068" d="M1 0l712 1481h1215v-175h-744v-456h692v-173h-692v-502h771v-175h-968v427h-572l-202 -427h-212zM498 601h489v705h-147z" />
<glyph unicode="&#xc7;" horiz-adv-x="1493" d="M103 751q0 232 88.5 404t251.5 261.5t359 89.5q222 0 373.5 -113t211.5 -318l-193 -46q-52 162 -150 235.5t-246 73.5q-171 0 -285.5 -81.5t-161 -219.5t-46.5 -285q0 -188 55 -329t171 -211t252 -70q164 0 278.5 95t154.5 282l196 -49q-62 -242 -222 -368.5t-391 -126.5 q-239 0 -389 97.5t-228.5 282t-78.5 396.5zM516 -413l11 118q65 -4 95 -4q95 0 133 26q30 21 30 50q0 18 -11.5 32t-43 24t-104.5 11l53 179h135l-33 -108q86 -10 129 -53t43 -95q0 -76 -72.5 -134t-218.5 -58q-83 0 -146 12z" />
<glyph unicode="&#xc8;" horiz-adv-x="1379" d="M164 0v1481h1070v-175h-874v-454h819v-173h-819v-504h909v-175h-1105zM479 1855h243l137 -283h-147z" />
<glyph unicode="&#xc9;" horiz-adv-x="1379" d="M164 0v1481h1070v-175h-874v-454h819v-173h-819v-504h909v-175h-1105zM567 1572l135 283h238l-222 -283h-151z" />
<glyph unicode="&#xca;" horiz-adv-x="1379" d="M164 0v1481h1070v-175h-874v-454h819v-173h-819v-504h909v-175h-1105zM392 1572l218 283h194l228 -283h-206l-112 172l-114 -172h-208z" />
<glyph unicode="&#xcb;" horiz-adv-x="1379" d="M164 0v1481h1070v-175h-874v-454h819v-173h-819v-504h909v-175h-1105zM430 1572v207h189v-207h-189zM806 1572v207h190v-207h-190z" />
<glyph unicode="&#xcc;" horiz-adv-x="574" d="M56 1855h243l137 -283h-147zM193 0v1481h196v-1481h-196z" />
<glyph unicode="&#xcd;" horiz-adv-x="574" d="M143 1572l135 283h238l-222 -283h-151zM193 0v1481h196v-1481h-196z" />
<glyph unicode="&#xce;" horiz-adv-x="574" d="M-32 1572l218 283h194l228 -283h-206l-112 172l-114 -172h-208zM193 0v1481h196v-1481h-196z" />
<glyph unicode="&#xcf;" horiz-adv-x="574" d="M5 1572v207h189v-207h-189zM193 0v1481h196v-1481h-196zM381 1572v207h190v-207h-190z" />
<glyph unicode="&#xd0;" horiz-adv-x="1493" d="M-3 674v133h163v674h511q171 0 262 -22q127 -29 217 -106q118 -99 176 -253t58 -352q0 -226 -72 -389t-172 -237t-230 -105q-72 -17 -216 -17h-534v674h-163zM356 175h316q147 0 230 27t131 76q70 69 109.5 186.5t39.5 285.5q0 174 -39 278t-101.5 166.5t-139.5 87 t-235 24.5h-311v-499h408v-133h-408v-499z" />
<glyph unicode="&#xd1;" horiz-adv-x="1493" d="M158 0v1481h201l777 -1163v1163h188v-1481h-201l-778 1164v-1164h-187zM434 1571q-1 105 58 168q57 62 147 62q63 0 171 -54q59 -30 95 -30q32 0 49 17.5t24 69.5h132q-3 -115 -58 -172.5t-140 -57.5q-64 0 -168 57q-68 36 -99 36q-34 0 -55 -24q-23 -24 -22 -72h-134z " />
<glyph unicode="&#xd2;" horiz-adv-x="1608" d="M100 721q0 369 198 577.5t511 208.5q205 0 369.5 -98t251 -273t86.5 -398q0 -225 -91 -402.5t-257.5 -269t-359.5 -91.5q-209 0 -373.5 101t-249.5 275.5t-85 369.5zM302 718q0 -268 144 -422t361 -154q221 0 364 155.5t143 441.5q0 181 -61 316t-179 209t-264 74 q-208 0 -358 -143t-150 -477zM546 1855h243l137 -283h-147z" />
<glyph unicode="&#xd3;" horiz-adv-x="1608" d="M100 721q0 369 198 577.5t511 208.5q205 0 369.5 -98t251 -273t86.5 -398q0 -225 -91 -402.5t-257.5 -269t-359.5 -91.5q-209 0 -373.5 101t-249.5 275.5t-85 369.5zM302 718q0 -268 144 -422t361 -154q221 0 364 155.5t143 441.5q0 181 -61 316t-179 209t-264 74 q-208 0 -358 -143t-150 -477zM684 1572l135 283h238l-222 -283h-151z" />
<glyph unicode="&#xd4;" horiz-adv-x="1608" d="M100 721q0 369 198 577.5t511 208.5q205 0 369.5 -98t251 -273t86.5 -398q0 -225 -91 -402.5t-257.5 -269t-359.5 -91.5q-209 0 -373.5 101t-249.5 275.5t-85 369.5zM302 718q0 -268 144 -422t361 -154q221 0 364 155.5t143 441.5q0 181 -61 316t-179 209t-264 74 q-208 0 -358 -143t-150 -477zM484 1572l218 283h194l228 -283h-206l-112 172l-114 -172h-208z" />
<glyph unicode="&#xd5;" horiz-adv-x="1608" d="M100 721q0 369 198 577.5t511 208.5q205 0 369.5 -98t251 -273t86.5 -398q0 -225 -91 -402.5t-257.5 -269t-359.5 -91.5q-209 0 -373.5 101t-249.5 275.5t-85 369.5zM302 718q0 -268 144 -422t361 -154q221 0 364 155.5t143 441.5q0 181 -61 316t-179 209t-264 74 q-208 0 -358 -143t-150 -477zM471 1571q-1 105 58 168q57 62 147 62q63 0 171 -54q59 -30 95 -30q32 0 49 17.5t24 69.5h132q-3 -115 -58 -172.5t-140 -57.5q-64 0 -168 57q-68 36 -99 36q-34 0 -55 -24q-23 -24 -22 -72h-134z" />
<glyph unicode="&#xd6;" horiz-adv-x="1608" d="M100 721q0 369 198 577.5t511 208.5q205 0 369.5 -98t251 -273t86.5 -398q0 -225 -91 -402.5t-257.5 -269t-359.5 -91.5q-209 0 -373.5 101t-249.5 275.5t-85 369.5zM302 718q0 -268 144 -422t361 -154q221 0 364 155.5t143 441.5q0 181 -61 316t-179 209t-264 74 q-208 0 -358 -143t-150 -477zM522 1572v207h189v-207h-189zM898 1572v207h190v-207h-190z" />
<glyph unicode="&#xd7;" horiz-adv-x="1207" d="M163 413l318 318l-317 317l123 124l317 -318l316 317l121 -123l-315 -316l317 -317l-123 -123l-317 317l-318 -318z" />
<glyph unicode="&#xd8;" horiz-adv-x="1608" d="M84 25l178 199q-99 151 -132.5 257.5t-33.5 255.5q0 229 91 407t255 270t365 92q135 0 236.5 -36t218.5 -125l170 190l100 -85l-178 -200q87 -129 118 -226q40 -127 40 -285q0 -227 -92 -404.5t-258 -268.5t-353 -91q-139 0 -252 39q-87 30 -203 116l-170 -190zM298 740 q0 -117 22 -208q16 -67 68 -166l753 843q-95 75 -166 102t-167 27q-221 0 -365.5 -150t-144.5 -448zM474 265q77 -64 143 -89q86 -34 186 -34q220 0 363.5 155.5t143.5 436.5q0 210 -86 371z" />
<glyph unicode="&#xd9;" horiz-adv-x="1493" d="M163 625v856h196v-855q0 -193 35.5 -284.5t123 -140.5t213.5 -49q216 0 308 97.5t92 376.5v855h196v-856q0 -223 -50.5 -354.5t-182 -213.5t-346.5 -82q-208 0 -340 71.5t-188.5 207.5t-56.5 371zM483 1855h243l137 -283h-147z" />
<glyph unicode="&#xda;" horiz-adv-x="1493" d="M163 625v856h196v-855q0 -193 35.5 -284.5t123 -140.5t213.5 -49q216 0 308 97.5t92 376.5v855h196v-856q0 -223 -50.5 -354.5t-182 -213.5t-346.5 -82q-208 0 -340 71.5t-188.5 207.5t-56.5 371zM620 1572l135 283h238l-222 -283h-151z" />
<glyph unicode="&#xdb;" horiz-adv-x="1493" d="M163 625v856h196v-855q0 -193 35.5 -284.5t123 -140.5t213.5 -49q216 0 308 97.5t92 376.5v855h196v-856q0 -223 -50.5 -354.5t-182 -213.5t-346.5 -82q-208 0 -340 71.5t-188.5 207.5t-56.5 371zM421 1572l218 283h194l228 -283h-206l-112 172l-114 -172h-208z" />
<glyph unicode="&#xdc;" horiz-adv-x="1493" d="M163 625v856h196v-855q0 -193 35.5 -284.5t123 -140.5t213.5 -49q216 0 308 97.5t92 376.5v855h196v-856q0 -223 -50.5 -354.5t-182 -213.5t-346.5 -82q-208 0 -340 71.5t-188.5 207.5t-56.5 371zM459 1572v207h189v-207h-189zM835 1572v207h190v-207h-190z" />
<glyph unicode="&#xdd;" horiz-adv-x="1379" d="M6 1481h238l292 -447q81 -125 151 -250q66 116 161 261l287 436h229l-591 -854v-627h-196v627zM560 1572l135 283h238l-222 -283h-151z" />
<glyph unicode="&#xde;" horiz-adv-x="1379" d="M160 0v1481h196v-301h362q148 0 226 -14q109 -20 183 -71t118.5 -142.5t44.5 -202.5q0 -187 -120.5 -318t-434.5 -131h-379v-301h-196zM356 476h382q190 0 270 70.5t80 197.5q0 92 -46.5 159t-123.5 88q-49 14 -184 14h-378v-529z" />
<glyph unicode="&#xdf;" horiz-adv-x="1263" d="M155 0v1009q0 185 44.5 284.5t149.5 156t237 56.5q175 0 275 -87.5t100 -202.5q0 -51 -18.5 -106t-65 -136t-58.5 -113t-12 -56q0 -32 22 -64q21 -32 122 -98q138 -90 183 -144q65 -78 65 -184q0 -140 -103.5 -240t-265.5 -100q-127 0 -223 68t-143 175l156 73 q51 -94 101.5 -130.5t105.5 -36.5q77 0 131.5 52.5t54.5 123.5q0 57 -32 97q-21 26 -113 89q-168 115 -207 173q-41 57 -41 118q0 39 13.5 79.5t65.5 129.5t68.5 133.5t16.5 78.5q0 62 -55 110t-147 48q-108 0 -177 -66.5t-69 -288.5v-1001h-181z" />
<glyph unicode="&#xe0;" horiz-adv-x="1150" d="M75 283q0 79 35.5 144t94 104.5t130.5 59.5q54 14 162 27q220 26 324 63q1 37 1 47q0 111 -51 157q-70 61 -207 61q-129 0 -190 -45t-90 -159l-178 25q24 114 79.5 184t160.5 108t244 38q137 0 223 -32.5t126.5 -81.5t56.5 -123q9 -47 9 -168v-243q0 -253 11.5 -320 t46.5 -129h-190q-29 57 -37 132q-101 -86 -194.5 -121t-200.5 -35q-176 0 -271 86t-95 221zM269 288q0 -73 55 -121.5t161 -48.5q105 0 186.5 46t120.5 126q29 61 29 182v66q-99 -40 -297 -68q-112 -17 -158.5 -37t-71.5 -59t-25 -86zM342 1489h243l137 -283h-147z" />
<glyph unicode="&#xe1;" horiz-adv-x="1150" d="M75 283q0 79 35.5 144t94 104.5t130.5 59.5q54 14 162 27q220 26 324 63q1 37 1 47q0 111 -51 157q-70 61 -207 61q-129 0 -190 -45t-90 -159l-178 25q24 114 79.5 184t160.5 108t244 38q137 0 223 -32.5t126.5 -81.5t56.5 -123q9 -47 9 -168v-243q0 -253 11.5 -320 t46.5 -129h-190q-29 57 -37 132q-101 -86 -194.5 -121t-200.5 -35q-176 0 -271 86t-95 221zM269 288q0 -73 55 -121.5t161 -48.5q105 0 186.5 46t120.5 126q29 61 29 182v66q-99 -40 -297 -68q-112 -17 -158.5 -37t-71.5 -59t-25 -86zM467 1206l135 283h238l-222 -283h-151z " />
<glyph unicode="&#xe2;" horiz-adv-x="1150" d="M75 283q0 79 35.5 144t94 104.5t130.5 59.5q54 14 162 27q220 26 324 63q1 37 1 47q0 111 -51 157q-70 61 -207 61q-129 0 -190 -45t-90 -159l-178 25q24 114 79.5 184t160.5 108t244 38q137 0 223 -32.5t126.5 -81.5t56.5 -123q9 -47 9 -168v-243q0 -253 11.5 -320 t46.5 -129h-190q-29 57 -37 132q-101 -86 -194.5 -121t-200.5 -35q-176 0 -271 86t-95 221zM249 1206l218 283h194l228 -283h-206l-112 172l-114 -172h-208zM269 288q0 -73 55 -121.5t161 -48.5q105 0 186.5 46t120.5 126q29 61 29 182v66q-99 -40 -297 -68 q-112 -17 -158.5 -37t-71.5 -59t-25 -86z" />
<glyph unicode="&#xe3;" horiz-adv-x="1150" d="M75 283q0 79 35.5 144t94 104.5t130.5 59.5q54 14 162 27q220 26 324 63q1 37 1 47q0 111 -51 157q-70 61 -207 61q-129 0 -190 -45t-90 -159l-178 25q24 114 79.5 184t160.5 108t244 38q137 0 223 -32.5t126.5 -81.5t56.5 -123q9 -47 9 -168v-243q0 -253 11.5 -320 t46.5 -129h-190q-29 57 -37 132q-101 -86 -194.5 -121t-200.5 -35q-176 0 -271 86t-95 221zM231 1231q-1 105 58 168q57 62 147 62q63 0 171 -54q59 -30 95 -30q32 0 49 17.5t24 69.5h132q-3 -115 -58 -172.5t-140 -57.5q-64 0 -168 57q-68 36 -99 36q-34 0 -55 -24 q-23 -24 -22 -72h-134zM269 288q0 -73 55 -121.5t161 -48.5q105 0 186.5 46t120.5 126q29 61 29 182v66q-99 -40 -297 -68q-112 -17 -158.5 -37t-71.5 -59t-25 -86z" />
<glyph unicode="&#xe4;" horiz-adv-x="1150" d="M75 283q0 79 35.5 144t94 104.5t130.5 59.5q54 14 162 27q220 26 324 63q1 37 1 47q0 111 -51 157q-70 61 -207 61q-129 0 -190 -45t-90 -159l-178 25q24 114 79.5 184t160.5 108t244 38q137 0 223 -32.5t126.5 -81.5t56.5 -123q9 -47 9 -168v-243q0 -253 11.5 -320 t46.5 -129h-190q-29 57 -37 132q-101 -86 -194.5 -121t-200.5 -35q-176 0 -271 86t-95 221zM269 288q0 -73 55 -121.5t161 -48.5q105 0 186.5 46t120.5 126q29 61 29 182v66q-99 -40 -297 -68q-112 -17 -158.5 -37t-71.5 -59t-25 -86zM286 1283v207h189v-207h-189zM662 1283 v207h190v-207h-190z" />
<glyph unicode="&#xe5;" horiz-adv-x="1150" d="M75 283q0 79 35.5 144t94 104.5t130.5 59.5q54 14 162 27q220 26 324 63q1 37 1 47q0 111 -51 157q-70 61 -207 61q-129 0 -190 -45t-90 -159l-178 25q24 114 79.5 184t160.5 108t244 38q137 0 223 -32.5t126.5 -81.5t56.5 -123q9 -47 9 -168v-243q0 -253 11.5 -320 t46.5 -129h-190q-29 57 -37 132q-101 -86 -194.5 -121t-200.5 -35q-176 0 -271 86t-95 221zM269 288q0 -73 55 -121.5t161 -48.5q105 0 186.5 46t120.5 126q29 61 29 182v66q-99 -40 -297 -68q-112 -17 -158.5 -37t-71.5 -59t-25 -86zM387 1351q0 74 54 127.5t127 53.5 q75 0 128.5 -54t53.5 -131t-53.5 -130.5t-127.5 -53.5q-75 0 -128.5 54t-53.5 134zM463 1350q0 -47 32 -79.5t75 -32.5q44 0 75.5 32.5t31.5 77.5q0 46 -31 78t-76 32q-43 0 -75 -31.5t-32 -76.5z" />
<glyph unicode="&#xe6;" horiz-adv-x="1839" d="M69 283q0 87 50 163t139 115.5t285 64.5q152 20 255 50q1 25 1 41q0 127 -53 178t-185 51q-88 0 -149 -21t-89.5 -60t-47.5 -125l-177 22q28 118 81 187t152 108.5t232 39.5q168 0 271 -51q60 -29 100 -94q65 71 147 108t198 37q163 0 270 -79.5t156.5 -209.5t49.5 -257 q0 -19 -2 -61h-774q2 -146 35.5 -211.5t108 -109.5t163.5 -44q104 0 176 59.5t99 167.5l190 -24q-50 -168 -171.5 -260t-300.5 -92q-129 0 -225.5 48.5t-173.5 151.5q-105 -103 -212.5 -151.5t-232.5 -48.5q-173 0 -269.5 89.5t-96.5 217.5zM262 289q0 -72 53.5 -121 t155.5 -49q116 0 202.5 57.5t112.5 143.5q15 53 15 218q-80 -34 -325 -73q-110 -18 -155 -52q-59 -47 -59 -124zM979 639h590q-15 160 -91.5 233.5t-199.5 73.5q-128 0 -209 -80.5t-90 -226.5z" />
<glyph unicode="&#xe7;" horiz-adv-x="1034" d="M81 532q0 174 57.5 304.5t175 195.5t256.5 65q174 0 285.5 -88.5t142.5 -250.5l-177 -28q-25 108 -89 162.5t-155 54.5q-138 0 -223.5 -98.5t-85.5 -311.5q0 -216 82.5 -314t216.5 -98q107 0 178.5 66t90.5 202l179 -23q-29 -185 -150 -289.5t-296 -104.5 q-221 0 -354.5 144t-133.5 412zM305 -393l11 118q65 -4 95 -4q95 0 133 26q30 21 30 50q0 18 -11.5 32t-43 24t-104.5 11l53 179h135l-33 -108q86 -10 129 -53t43 -95q0 -76 -72.5 -134t-218.5 -58q-83 0 -146 12z" />
<glyph unicode="&#xe8;" horiz-adv-x="1150" d="M76 527q0 271 139.5 420.5t361.5 149.5q215 0 351.5 -146.5t136.5 -412.5q0 -16 -1 -48h-800q10 -177 99.5 -271t224.5 -94q100 0 170.5 52.5t112.5 167.5l187 -23q-44 -164 -164 -255t-307 -91q-236 0 -373.5 145t-137.5 406zM274 639h599q-12 136 -69 203 q-87 105 -225 105q-126 0 -211 -83.5t-94 -224.5zM313 1489h243l137 -283h-147z" />
<glyph unicode="&#xe9;" horiz-adv-x="1150" d="M76 527q0 271 139.5 420.5t361.5 149.5q215 0 351.5 -146.5t136.5 -412.5q0 -16 -1 -48h-800q10 -177 99.5 -271t224.5 -94q100 0 170.5 52.5t112.5 167.5l187 -23q-44 -164 -164 -255t-307 -91q-236 0 -373.5 145t-137.5 406zM274 639h599q-12 136 -69 203 q-87 105 -225 105q-126 0 -211 -83.5t-94 -224.5zM469 1206l135 283h238l-222 -283h-151z" />
<glyph unicode="&#xea;" horiz-adv-x="1150" d="M76 527q0 271 139.5 420.5t361.5 149.5q215 0 351.5 -146.5t136.5 -412.5q0 -16 -1 -48h-800q10 -177 99.5 -271t224.5 -94q100 0 170.5 52.5t112.5 167.5l187 -23q-44 -164 -164 -255t-307 -91q-236 0 -373.5 145t-137.5 406zM250 1206l218 283h194l228 -283h-206 l-112 172l-114 -172h-208zM274 639h599q-12 136 -69 203q-87 105 -225 105q-126 0 -211 -83.5t-94 -224.5z" />
<glyph unicode="&#xeb;" horiz-adv-x="1150" d="M76 527q0 271 139.5 420.5t361.5 149.5q215 0 351.5 -146.5t136.5 -412.5q0 -16 -1 -48h-800q10 -177 99.5 -271t224.5 -94q100 0 170.5 52.5t112.5 167.5l187 -23q-44 -164 -164 -255t-307 -91q-236 0 -373.5 145t-137.5 406zM274 639h599q-12 136 -69 203 q-87 105 -225 105q-126 0 -211 -83.5t-94 -224.5zM287 1283v207h189v-207h-189zM663 1283v207h190v-207h-190z" />
<glyph unicode="&#xec;" horiz-adv-x="574" d="M36 1489h243l137 -283h-147zM200 0v1073h182v-1073h-182z" />
<glyph unicode="&#xed;" horiz-adv-x="574" d="M192 1206l135 283h238l-222 -283h-151zM200 0v1073h182v-1073h-182z" />
<glyph unicode="&#xee;" horiz-adv-x="574" d="M-16 1206l218 283h194l228 -283h-206l-112 172l-114 -172h-208zM200 0v1073h182v-1073h-182z" />
<glyph unicode="&#xef;" horiz-adv-x="574" d="M10 1283v207h189v-207h-189zM200 0v1073h182v-1073h-182zM386 1283v207h190v-207h-190z" />
<glyph unicode="&#xf0;" horiz-adv-x="1150" d="M74 522q0 264 130 407.5t326 143.5q59 0 103.5 -12.5t110.5 -47.5q-36 74 -63.5 115t-79.5 100l-278 -128l-44 104l241 110q-98 91 -209 167h219q73 -55 126 -103l217 103l45 -103l-174 -84q324 -372 324 -768q0 -255 -140.5 -403t-357.5 -148q-258 0 -402 196 q-94 128 -94 351zM260 517q0 -196 88 -295t221 -99q129 0 219.5 104.5t90.5 306.5q0 194 -91.5 296.5t-224.5 102.5q-132 0 -217.5 -102.5t-85.5 -313.5z" />
<glyph unicode="&#xf1;" horiz-adv-x="1150" d="M136 0v1073h164v-153q118 177 341 177q97 0 178.5 -35t122 -91.5t56.5 -134.5q10 -50 10 -176v-660h-182v652q0 112 -21 167t-75 87.5t-127 32.5q-116 0 -200.5 -73.5t-84.5 -279.5v-586h-182zM265 1231q-1 105 58 168q57 62 147 62q63 0 171 -54q59 -30 95 -30 q32 0 49 17.5t24 69.5h132q-3 -115 -58 -172.5t-140 -57.5q-64 0 -168 57q-68 36 -99 36q-34 0 -55 -24q-23 -24 -22 -72h-134z" />
<glyph unicode="&#xf2;" horiz-adv-x="1150" d="M70 536q0 298 165 442q139 119 338 119q221 0 361.5 -145t140.5 -401q0 -207 -62 -325.5t-181 -184t-259 -65.5q-225 0 -364 144.5t-139 415.5zM257 536q0 -206 89.5 -308.5t226.5 -102.5q135 0 225 103t90 314q0 199 -90.5 301.5t-224.5 102.5q-137 0 -226.5 -102 t-89.5 -308zM314 1489h243l137 -283h-147z" />
<glyph unicode="&#xf3;" horiz-adv-x="1150" d="M70 536q0 298 165 442q139 119 338 119q221 0 361.5 -145t140.5 -401q0 -207 -62 -325.5t-181 -184t-259 -65.5q-225 0 -364 144.5t-139 415.5zM257 536q0 -206 89.5 -308.5t226.5 -102.5q135 0 225 103t90 314q0 199 -90.5 301.5t-224.5 102.5q-137 0 -226.5 -102 t-89.5 -308zM470 1206l135 283h238l-222 -283h-151z" />
<glyph unicode="&#xf4;" horiz-adv-x="1150" d="M70 536q0 298 165 442q139 119 338 119q221 0 361.5 -145t140.5 -401q0 -207 -62 -325.5t-181 -184t-259 -65.5q-225 0 -364 144.5t-139 415.5zM251 1206l218 283h194l228 -283h-206l-112 172l-114 -172h-208zM257 536q0 -206 89.5 -308.5t226.5 -102.5q135 0 225 103 t90 314q0 199 -90.5 301.5t-224.5 102.5q-137 0 -226.5 -102t-89.5 -308z" />
<glyph unicode="&#xf5;" horiz-adv-x="1150" d="M70 536q0 298 165 442q139 119 338 119q221 0 361.5 -145t140.5 -401q0 -207 -62 -325.5t-181 -184t-259 -65.5q-225 0 -364 144.5t-139 415.5zM233 1231q-1 105 58 168q57 62 147 62q63 0 171 -54q59 -30 95 -30q32 0 49 17.5t24 69.5h132q-3 -115 -58 -172.5 t-140 -57.5q-64 0 -168 57q-68 36 -99 36q-34 0 -55 -24q-23 -24 -22 -72h-134zM257 536q0 -206 89.5 -308.5t226.5 -102.5q135 0 225 103t90 314q0 199 -90.5 301.5t-224.5 102.5q-137 0 -226.5 -102t-89.5 -308z" />
<glyph unicode="&#xf6;" horiz-adv-x="1150" d="M70 536q0 298 165 442q139 119 338 119q221 0 361.5 -145t140.5 -401q0 -207 -62 -325.5t-181 -184t-259 -65.5q-225 0 -364 144.5t-139 415.5zM257 536q0 -206 89.5 -308.5t226.5 -102.5q135 0 225 103t90 314q0 199 -90.5 301.5t-224.5 102.5q-137 0 -226.5 -102 t-89.5 -308zM288 1283v207h189v-207h-189zM664 1283v207h190v-207h-190z" />
<glyph unicode="&#xf7;" horiz-adv-x="1135" d="M79 645v170h977v-170h-977zM464 322v207h207v-207h-207zM464 931v207h207v-207h-207z" />
<glyph unicode="&#xf8;" horiz-adv-x="1263" d="M130 521q0 304 148.5 440t348.5 136q83 0 152.5 -21.5t148.5 -66.5l100 129l97 -70l-108 -140q64 -87 87 -157q31 -101 31 -236q0 -303 -170 -445q-139 -114 -334 -114q-160 0 -284 81l-106 -137l-95 72l110 142q-60 69 -85 138q-41 110 -41 249zM317 536q0 -151 53 -253 l456 593q-92 70 -193 70q-134 0 -225 -103t-91 -307zM448 189q79 -64 178 -64q141 0 232 103t91 309q0 77 -12 135q-8 42 -35 106z" />
<glyph unicode="&#xf9;" horiz-adv-x="1150" d="M132 408v665h182v-595q0 -143 11 -192q17 -72 72.5 -113t137.5 -41t154 42t101.5 114.5t29.5 209.5v575h182v-1073h-163v158q-125 -182 -340 -182q-95 0 -177.5 36t-122 91.5t-56.5 134.5q-11 54 -11 170zM356 1489h243l137 -283h-147z" />
<glyph unicode="&#xfa;" horiz-adv-x="1150" d="M132 408v665h182v-595q0 -143 11 -192q17 -72 72.5 -113t137.5 -41t154 42t101.5 114.5t29.5 209.5v575h182v-1073h-163v158q-125 -182 -340 -182q-95 0 -177.5 36t-122 91.5t-56.5 134.5q-11 54 -11 170zM457 1206l135 283h238l-222 -283h-151z" />
<glyph unicode="&#xfb;" horiz-adv-x="1150" d="M132 408v665h182v-595q0 -143 11 -192q17 -72 72.5 -113t137.5 -41t154 42t101.5 114.5t29.5 209.5v575h182v-1073h-163v158q-125 -182 -340 -182q-95 0 -177.5 36t-122 91.5t-56.5 134.5q-11 54 -11 170zM247 1206l218 283h194l228 -283h-206l-112 172l-114 -172h-208z " />
<glyph unicode="&#xfc;" horiz-adv-x="1150" d="M132 408v665h182v-595q0 -143 11 -192q17 -72 72.5 -113t137.5 -41t154 42t101.5 114.5t29.5 209.5v575h182v-1073h-163v158q-125 -182 -340 -182q-95 0 -177.5 36t-122 91.5t-56.5 134.5q-11 54 -11 170zM284 1283v207h189v-207h-189zM660 1283v207h190v-207h-190z" />
<glyph unicode="&#xfd;" horiz-adv-x="1034" d="M33 1073h196l223 -622q44 -118 78 -248q32 125 75 244l229 626h182l-408 -1091q-66 -177 -102 -244q-48 -89 -111 -131t-150 -42q-52 0 -117 22l-20 171q60 -17 104 -17q61 0 97 20.5t60 56.5q17 27 55 136q5 15 16 44zM424 1206l135 283h238l-222 -283h-151z" />
<glyph unicode="&#xfe;" horiz-adv-x="1150" d="M136 -411v1892h182v-521q74 77 129 103q73 34 166 34q137 0 242.5 -71t159 -199.5t53.5 -282.5q0 -165 -59.5 -296.5t-172 -201.5t-235.5 -70q-84 0 -156 33q-54 26 -127 102v-522h-182zM301 530q0 -207 84 -306t203 -99q121 0 207.5 102.5t86.5 317.5q0 205 -84.5 307 t-201.5 102q-116 0 -205.5 -108.5t-89.5 -315.5z" />
<glyph unicode="&#xff;" horiz-adv-x="1034" d="M33 1073h196l223 -622q44 -118 78 -248q32 125 75 244l229 626h182l-408 -1091q-66 -177 -102 -244q-48 -89 -111 -131t-150 -42q-52 0 -117 22l-20 171q60 -17 104 -17q61 0 97 20.5t60 56.5q17 27 55 136q5 15 16 44zM246 1283v207h189v-207h-189zM622 1283v207h190 v-207h-190z" />
<glyph unicode="&#x100;" horiz-adv-x="1379" d="M-3 0l569 1481h211l606 -1481h-224l-172 448h-619l-163 -448h-208zM362 1594v150h631v-150h-631zM424 608h502l-154 410q-71 187 -105 307q-29 -142 -80 -283z" />
<glyph unicode="&#x101;" horiz-adv-x="1150" d="M75 283q0 79 35.5 144t94 104.5t130.5 59.5q54 14 162 27q220 26 324 63q1 37 1 47q0 111 -51 157q-70 61 -207 61q-129 0 -190 -45t-90 -159l-178 25q24 114 79.5 184t160.5 108t244 38q137 0 223 -32.5t126.5 -81.5t56.5 -123q9 -47 9 -168v-243q0 -253 11.5 -320 t46.5 -129h-190q-29 57 -37 132q-101 -86 -194.5 -121t-200.5 -35q-176 0 -271 86t-95 221zM269 288q0 -73 55 -121.5t161 -48.5q105 0 186.5 46t120.5 126q29 61 29 182v66q-99 -40 -297 -68q-112 -17 -158.5 -37t-71.5 -59t-25 -86zM276 1239v150h631v-150h-631z" />
<glyph unicode="&#x102;" horiz-adv-x="1379" d="M-3 0l569 1481h211l606 -1481h-224l-172 448h-619l-163 -448h-208zM387 1834h125q14 -69 56 -103t112 -34q82 0 124 33t56 104h124q-15 -127 -92 -194.5t-206 -67.5t-206 67t-93 195zM424 608h502l-154 410q-71 187 -105 307q-29 -142 -80 -283z" />
<glyph unicode="&#x103;" horiz-adv-x="1150" d="M75 283q0 79 35.5 144t94 104.5t130.5 59.5q54 14 162 27q220 26 324 63q1 37 1 47q0 111 -51 157q-70 61 -207 61q-129 0 -190 -45t-90 -159l-178 25q24 114 79.5 184t160.5 108t244 38q137 0 223 -32.5t126.5 -81.5t56.5 -123q9 -47 9 -168v-243q0 -253 11.5 -320 t46.5 -129h-190q-29 57 -37 132q-101 -86 -194.5 -121t-200.5 -35q-176 0 -271 86t-95 221zM269 288q0 -73 55 -121.5t161 -48.5q105 0 186.5 46t120.5 126q29 61 29 182v66q-99 -40 -297 -68q-112 -17 -158.5 -37t-71.5 -59t-25 -86zM293 1479h125q14 -69 56 -103t112 -34 q82 0 124 33t56 104h124q-15 -127 -92 -194.5t-206 -67.5t-206 67t-93 195z" />
<glyph unicode="&#x104;" horiz-adv-x="1379" d="M-3 0l569 1481h211l606 -1481h-224l-172 448h-619l-163 -448h-208zM424 608h502l-154 410q-71 187 -105 307q-29 -142 -80 -283zM1121 -197q0 87 41 231h125q-39 -90 -39 -165q0 -69 41.5 -111.5t104.5 -42.5q77 0 169 47v-121q-52 -27 -114 -44t-107 -17 q-100 0 -160.5 60.5t-60.5 162.5z" />
<glyph unicode="&#x105;" horiz-adv-x="1150" d="M75 283q0 79 35.5 144t94 104.5t130.5 59.5q54 14 162 27q220 26 324 63q1 37 1 47q0 111 -51 157q-70 61 -207 61q-129 0 -190 -45t-90 -159l-178 25q24 114 79.5 184t160.5 108t244 38q137 0 223 -32.5t126.5 -81.5t56.5 -123q9 -47 9 -168v-243q0 -253 11.5 -320 t46.5 -129h-190q-29 57 -37 132q-101 -86 -194.5 -121t-200.5 -35q-176 0 -271 86t-95 221zM269 288q0 -73 55 -121.5t161 -48.5q105 0 186.5 46t120.5 126q29 61 29 182v66q-99 -40 -297 -68q-112 -17 -158.5 -37t-71.5 -59t-25 -86zM838 -182q0 87 41 231h125 q-39 -90 -39 -165q0 -69 41.5 -111.5t104.5 -42.5q77 0 169 47v-121q-52 -27 -114 -44t-107 -17q-100 0 -160.5 60.5t-60.5 162.5z" />
<glyph unicode="&#x106;" horiz-adv-x="1493" d="M103 751q0 232 88.5 404t251.5 261.5t359 89.5q222 0 373.5 -113t211.5 -318l-193 -46q-52 162 -150 235.5t-246 73.5q-171 0 -285.5 -81.5t-161 -219.5t-46.5 -285q0 -188 55 -329t171 -211t252 -70q164 0 278.5 95t154.5 282l196 -49q-62 -242 -222 -368.5t-391 -126.5 q-239 0 -389 97.5t-228.5 282t-78.5 396.5zM669 1572l135 283h238l-222 -283h-151z" />
<glyph unicode="&#x107;" horiz-adv-x="1034" d="M81 532q0 174 57.5 304.5t175 195.5t256.5 65q174 0 285.5 -88.5t142.5 -250.5l-177 -28q-25 108 -89 162.5t-155 54.5q-138 0 -223.5 -98.5t-85.5 -311.5q0 -216 82.5 -314t216.5 -98q107 0 178.5 66t90.5 202l179 -23q-29 -185 -150 -289.5t-296 -104.5 q-221 0 -354.5 144t-133.5 412zM428 1206l135 283h238l-222 -283h-151z" />
<glyph unicode="&#x108;" horiz-adv-x="1493" d="M103 751q0 232 88.5 404t251.5 261.5t359 89.5q222 0 373.5 -113t211.5 -318l-193 -46q-52 162 -150 235.5t-246 73.5q-171 0 -285.5 -81.5t-161 -219.5t-46.5 -285q0 -188 55 -329t171 -211t252 -70q164 0 278.5 95t154.5 282l196 -49q-62 -242 -222 -368.5t-391 -126.5 q-239 0 -389 97.5t-228.5 282t-78.5 396.5zM461 1566l218 283h194l228 -283h-206l-112 172l-114 -172h-208z" />
<glyph unicode="&#x109;" horiz-adv-x="1034" d="M81 532q0 174 57.5 304.5t175 195.5t256.5 65q174 0 285.5 -88.5t142.5 -250.5l-177 -28q-25 108 -89 162.5t-155 54.5q-138 0 -223.5 -98.5t-85.5 -311.5q0 -216 82.5 -314t216.5 -98q107 0 178.5 66t90.5 202l179 -23q-29 -185 -150 -289.5t-296 -104.5 q-221 0 -354.5 144t-133.5 412zM277 1206l218 283h194l228 -283h-206l-112 172l-114 -172h-208z" />
<glyph unicode="&#x10a;" horiz-adv-x="1493" d="M103 751q0 232 88.5 404t251.5 261.5t359 89.5q222 0 373.5 -113t211.5 -318l-193 -46q-52 162 -150 235.5t-246 73.5q-171 0 -285.5 -81.5t-161 -219.5t-46.5 -285q0 -188 55 -329t171 -211t252 -70q164 0 278.5 95t154.5 282l196 -49q-62 -242 -222 -368.5t-391 -126.5 q-239 0 -389 97.5t-228.5 282t-78.5 396.5zM667 1610v226h226v-226h-226z" />
<glyph unicode="&#x10b;" horiz-adv-x="1034" d="M81 532q0 174 57.5 304.5t175 195.5t256.5 65q174 0 285.5 -88.5t142.5 -250.5l-177 -28q-25 108 -89 162.5t-155 54.5q-138 0 -223.5 -98.5t-85.5 -311.5q0 -216 82.5 -314t216.5 -98q107 0 178.5 66t90.5 202l179 -23q-29 -185 -150 -289.5t-296 -104.5 q-221 0 -354.5 144t-133.5 412zM473 1206v226h226v-226h-226z" />
<glyph unicode="&#x10c;" horiz-adv-x="1493" d="M103 751q0 232 88.5 404t251.5 261.5t359 89.5q222 0 373.5 -113t211.5 -318l-193 -46q-52 162 -150 235.5t-246 73.5q-171 0 -285.5 -81.5t-161 -219.5t-46.5 -285q0 -188 55 -329t171 -211t252 -70q164 0 278.5 95t154.5 282l196 -49q-62 -242 -222 -368.5t-391 -126.5 q-239 0 -389 97.5t-228.5 282t-78.5 396.5zM476 1849h208l115 -172l111 172h206l-228 -283h-193z" />
<glyph unicode="&#x10d;" horiz-adv-x="1034" d="M81 532q0 174 57.5 304.5t175 195.5t256.5 65q174 0 285.5 -88.5t142.5 -250.5l-177 -28q-25 108 -89 162.5t-155 54.5q-138 0 -223.5 -98.5t-85.5 -311.5q0 -216 82.5 -314t216.5 -98q107 0 178.5 66t90.5 202l179 -23q-29 -185 -150 -289.5t-296 -104.5 q-221 0 -354.5 144t-133.5 412zM244 1489h208l115 -172l111 172h206l-228 -283h-193z" />
<glyph unicode="&#x10e;" horiz-adv-x="1493" d="M160 0v1481h510q172 0 263 -22q127 -29 217 -106q118 -99 176 -253t58 -352q0 -168 -39.5 -298.5t-101 -216t-135 -134.5t-177 -74t-237.5 -25h-534zM283 1849h208l115 -172l111 172h206l-228 -283h-193zM356 175h316q146 0 229.5 27t132.5 77q70 69 109 187t39 285 q0 233 -76.5 357.5t-185.5 167.5q-79 30 -253 30h-311v-1131z" />
<glyph unicode="&#x10f;" horiz-adv-x="1271" d="M72 535q0 161 53.5 291.5t160.5 200.5t239 70q97 0 173 -41t123 -107v532h181v-1481h-169v135q-102 -159 -300 -159q-128 0 -235.5 70.5t-166.5 197.5t-59 291zM259 535q0 -206 86.5 -308t204.5 -102q120 0 203 97.5t83 297.5q0 220 -84.5 323t-209.5 103 q-121 0 -202 -99t-81 -312zM1078 1100q51 23 76 67t27 127h-92v187h186v-187q0 -102 -36.5 -165t-115.5 -98z" />
<glyph unicode="&#x110;" horiz-adv-x="1493" d="M-3 674v133h163v674h511q171 0 262 -22q127 -29 217 -106q118 -99 176 -253t58 -352q0 -226 -72 -389t-172 -237t-230 -105q-72 -17 -216 -17h-534v674h-163zM356 175h316q147 0 230 27t131 76q70 69 109.5 186.5t39.5 285.5q0 174 -39 278t-101.5 166.5t-139.5 87 t-235 24.5h-311v-499h408v-133h-408v-499z" />
<glyph unicode="&#x111;" horiz-adv-x="1150" d="M71 535q0 161 53.5 291.5t160.5 200.5t239 70q97 0 173 -41t123 -107v282h-349v134h349v116h181v-116h146v-134h-146v-1231h-169v135q-102 -159 -300 -159q-128 0 -235.5 70.5t-166.5 197.5t-59 291zM258 535q0 -206 86.5 -308t204.5 -102q120 0 203 97.5t83 297.5 q0 220 -84.5 323t-209.5 103q-121 0 -202 -99t-81 -312z" />
<glyph unicode="&#x112;" horiz-adv-x="1379" d="M164 0v1481h1070v-175h-874v-454h819v-173h-819v-504h909v-175h-1105zM418 1605v150h631v-150h-631z" />
<glyph unicode="&#x113;" horiz-adv-x="1150" d="M76 527q0 271 139.5 420.5t361.5 149.5q215 0 351.5 -146.5t136.5 -412.5q0 -16 -1 -48h-800q10 -177 99.5 -271t224.5 -94q100 0 170.5 52.5t112.5 167.5l187 -23q-44 -164 -164 -255t-307 -91q-236 0 -373.5 145t-137.5 406zM255 1239v150h631v-150h-631zM274 639h599 q-12 136 -69 203q-87 105 -225 105q-126 0 -211 -83.5t-94 -224.5z" />
<glyph unicode="&#x114;" horiz-adv-x="1379" d="M164 0v1481h1070v-175h-874v-454h819v-173h-819v-504h909v-175h-1105zM413 1845h125q14 -69 56 -103t112 -34q82 0 124 33t56 104h124q-15 -127 -92 -194.5t-206 -67.5t-206 67t-93 195z" />
<glyph unicode="&#x115;" horiz-adv-x="1150" d="M76 527q0 271 139.5 420.5t361.5 149.5q215 0 351.5 -146.5t136.5 -412.5q0 -16 -1 -48h-800q10 -177 99.5 -271t224.5 -94q100 0 170.5 52.5t112.5 167.5l187 -23q-44 -164 -164 -255t-307 -91q-236 0 -373.5 145t-137.5 406zM274 639h599q-12 136 -69 203 q-87 105 -225 105q-126 0 -211 -83.5t-94 -224.5zM292 1479h125q14 -69 56 -103t112 -34q82 0 124 33t56 104h124q-15 -127 -92 -194.5t-206 -67.5t-206 67t-93 195z" />
<glyph unicode="&#x116;" horiz-adv-x="1379" d="M164 0v1481h1070v-175h-874v-454h819v-173h-819v-504h909v-175h-1105zM620 1572v226h226v-226h-226z" />
<glyph unicode="&#x117;" horiz-adv-x="1150" d="M76 527q0 271 139.5 420.5t361.5 149.5q215 0 351.5 -146.5t136.5 -412.5q0 -16 -1 -48h-800q10 -177 99.5 -271t224.5 -94q100 0 170.5 52.5t112.5 167.5l187 -23q-44 -164 -164 -255t-307 -91q-236 0 -373.5 145t-137.5 406zM274 639h599q-12 136 -69 203 q-87 105 -225 105q-126 0 -211 -83.5t-94 -224.5zM483 1206v226h226v-226h-226z" />
<glyph unicode="&#x118;" horiz-adv-x="1379" d="M164 0v1481h1070v-175h-874v-454h819v-173h-819v-504h909v-175h-1105zM823 -207q0 87 41 231h125q-39 -90 -39 -165q0 -69 41.5 -111.5t104.5 -42.5q77 0 169 47v-121q-52 -27 -114 -44t-107 -17q-100 0 -160.5 60.5t-60.5 162.5z" />
<glyph unicode="&#x119;" horiz-adv-x="1150" d="M76 527q0 271 139.5 420.5t361.5 149.5q215 0 351.5 -146.5t136.5 -412.5q0 -16 -1 -48h-800q10 -177 99.5 -271t224.5 -94q100 0 170.5 52.5t112.5 167.5l187 -23q-44 -164 -164 -255t-307 -91q-236 0 -373.5 145t-137.5 406zM274 639h599q-12 136 -69 203 q-87 105 -225 105q-126 0 -211 -83.5t-94 -224.5zM505 -207q0 87 41 231h125q-39 -90 -39 -165q0 -69 41.5 -111.5t104.5 -42.5q77 0 169 47v-121q-52 -27 -114 -44t-107 -17q-100 0 -160.5 60.5t-60.5 162.5z" />
<glyph unicode="&#x11a;" horiz-adv-x="1379" d="M164 0v1481h1070v-175h-874v-454h819v-173h-819v-504h909v-175h-1105zM350 1849h208l115 -172l111 172h206l-228 -283h-193z" />
<glyph unicode="&#x11b;" horiz-adv-x="1150" d="M76 527q0 271 139.5 420.5t361.5 149.5q215 0 351.5 -146.5t136.5 -412.5q0 -16 -1 -48h-800q10 -177 99.5 -271t224.5 -94q100 0 170.5 52.5t112.5 167.5l187 -23q-44 -164 -164 -255t-307 -91q-236 0 -373.5 145t-137.5 406zM266 1489h208l115 -172l111 172h206 l-228 -283h-193zM274 639h599q-12 136 -69 203q-87 105 -225 105q-126 0 -211 -83.5t-94 -224.5z" />
<glyph unicode="&#x11c;" horiz-adv-x="1608" d="M110 733q0 216 90.5 403.5t260 278.5t390.5 91q161 0 291 -52t203.5 -145t111.5 -242l-176 -49q-34 113 -83.5 177.5t-141 103.5t-204.5 39q-134 0 -232 -41t-158 -107.5t-93 -146.5q-57 -137 -57 -298q0 -198 68 -331t198.5 -197.5t276.5 -64.5q128 0 249 48.5 t184 104.5v276h-436v173l628 1v-549q-145 -115 -298.5 -173t-314.5 -58q-219 0 -397 93.5t-269 270t-91 394.5zM556 1561l218 283h194l228 -283h-206l-112 172l-114 -172h-208z" />
<glyph unicode="&#x11d;" horiz-adv-x="1150" d="M67 542q0 154 55.5 283.5t161 200.5t247.5 71q190 0 313 -154v130h168v-928q0 -250 -51 -354.5t-161.5 -165t-272.5 -60.5q-192 0 -310 86t-114 260l177 -26q11 -82 61 -119q68 -51 185 -51q126 0 195 50.5t93 141.5q14 56 13 233q-119 -140 -297 -140q-221 0 -342 159.5 t-121 382.5zM227 1206l218 283h194l228 -283h-206l-112 172l-114 -172h-208zM254 556q0 -212 83.5 -309t209.5 -97t210.5 96.5t84.5 302.5q0 197 -87 297t-211 100q-121 0 -205.5 -98.5t-84.5 -291.5z" />
<glyph unicode="&#x11e;" horiz-adv-x="1608" d="M110 733q0 216 90.5 403.5t260 278.5t390.5 91q161 0 291 -52t203.5 -145t111.5 -242l-176 -49q-34 113 -83.5 177.5t-141 103.5t-204.5 39q-134 0 -232 -41t-158 -107.5t-93 -146.5q-57 -137 -57 -298q0 -198 68 -331t198.5 -197.5t276.5 -64.5q128 0 249 48.5 t184 104.5v276h-436v173l628 1v-549q-145 -115 -298.5 -173t-314.5 -58q-219 0 -397 93.5t-269 270t-91 394.5zM577 1834h125q14 -69 56 -103t112 -34q82 0 124 33t56 104h124q-15 -127 -92 -194.5t-206 -67.5t-206 67t-93 195z" />
<glyph unicode="&#x11f;" horiz-adv-x="1150" d="M67 542q0 154 55.5 283.5t161 200.5t247.5 71q190 0 313 -154v130h168v-928q0 -250 -51 -354.5t-161.5 -165t-272.5 -60.5q-192 0 -310 86t-114 260l177 -26q11 -82 61 -119q68 -51 185 -51q126 0 195 50.5t93 141.5q14 56 13 233q-119 -140 -297 -140q-221 0 -342 159.5 t-121 382.5zM254 556q0 -212 83.5 -309t209.5 -97t210.5 96.5t84.5 302.5q0 197 -87 297t-211 100q-121 0 -205.5 -98.5t-84.5 -291.5zM276 1479h125q14 -69 56 -103t112 -34q82 0 124 33t56 104h124q-15 -127 -92 -194.5t-206 -67.5t-206 67t-93 195z" />
<glyph unicode="&#x120;" horiz-adv-x="1608" d="M110 733q0 216 90.5 403.5t260 278.5t390.5 91q161 0 291 -52t203.5 -145t111.5 -242l-176 -49q-34 113 -83.5 177.5t-141 103.5t-204.5 39q-134 0 -232 -41t-158 -107.5t-93 -146.5q-57 -137 -57 -298q0 -198 68 -331t198.5 -197.5t276.5 -64.5q128 0 249 48.5 t184 104.5v276h-436v173l628 1v-549q-145 -115 -298.5 -173t-314.5 -58q-219 0 -397 93.5t-269 270t-91 394.5zM762 1561v226h226v-226h-226z" />
<glyph unicode="&#x121;" horiz-adv-x="1150" d="M67 542q0 154 55.5 283.5t161 200.5t247.5 71q190 0 313 -154v130h168v-928q0 -250 -51 -354.5t-161.5 -165t-272.5 -60.5q-192 0 -310 86t-114 260l177 -26q11 -82 61 -119q68 -51 185 -51q126 0 195 50.5t93 141.5q14 56 13 233q-119 -140 -297 -140q-221 0 -342 159.5 t-121 382.5zM254 556q0 -212 83.5 -309t209.5 -97t210.5 96.5t84.5 302.5q0 197 -87 297t-211 100q-121 0 -205.5 -98.5t-84.5 -291.5zM461 1206v226h226v-226h-226z" />
<glyph unicode="&#x122;" horiz-adv-x="1608" d="M110 733q0 216 90.5 403.5t260 278.5t390.5 91q161 0 291 -52t203.5 -145t111.5 -242l-176 -49q-34 113 -83.5 177.5t-141 103.5t-204.5 39q-134 0 -232 -41t-158 -107.5t-93 -146.5q-57 -137 -57 -298q0 -198 68 -331t198.5 -197.5t276.5 -64.5q128 0 249 48.5 t184 104.5v276h-436v173l628 1v-549q-145 -115 -298.5 -173t-314.5 -58q-219 0 -397 93.5t-269 270t-91 394.5zM645 -413l11 118q65 -4 95 -4q95 0 133 26q30 21 30 50q0 18 -11.5 32t-43 24t-104.5 11l53 179h135l-33 -108q86 -10 129 -53t43 -95q0 -76 -72.5 -134 t-218.5 -58q-83 0 -146 12z" />
<glyph unicode="&#x123;" horiz-adv-x="1150" d="M67 540q0 244 122 400.5t344 156.5q188 0 311 -154v130h168v-928q0 -233 -46.5 -343t-162 -173.5t-272.5 -63.5q-216 0 -324 94.5t-104 251.5l177 -26q17 -170 246 -170q122 0 192.5 48.5t89.5 121.5t19 255q-118 -140 -294 -140q-222 0 -344 159t-122 381zM254 556 q0 -216 85.5 -311t207.5 -95q131 0 213 99.5t82 303.5q0 172 -78 282.5t-220 110.5q-131 0 -210.5 -104.5t-79.5 -285.5zM427 1182v118q0 113 37.5 183.5t132.5 108.5l54 -84q-93 -39 -110 -150h97v-176h-211z" />
<glyph unicode="&#x124;" horiz-adv-x="1493" d="M166 0v1481h196v-608h769v608h196v-1481h-196v698h-769v-698h-196zM459 1572l218 283h194l228 -283h-206l-112 172l-114 -172h-208z" />
<glyph unicode="&#x125;" horiz-adv-x="1150" d="M136 0v1481h182v-532q127 148 321 148q120 0 207.5 -47t125.5 -130t38 -240v-680h-182v680q0 136 -59 198t-167 62q-81 0 -152 -42t-101.5 -113.5t-30.5 -197.5v-587h-182zM328 1572l218 283h194l228 -283h-206l-112 172l-114 -172h-208z" />
<glyph unicode="&#x126;" horiz-adv-x="1493" d="M31 1110v149h135v222h196v-222h769v222h196v-222h134v-149h-134v-1110h-196v698h-769v-698h-196v1110h-135zM362 873h769v237h-769v-237z" />
<glyph unicode="&#x127;" horiz-adv-x="1150" d="M6 1211v135h130v135h182v-135h371v-135h-371v-262q123 148 323 148q139 0 254 -77t115 -340v-680h-182v680q0 260 -227 260q-124 0 -203.5 -81t-79.5 -272v-587h-182v1211h-130z" />
<glyph unicode="&#x128;" horiz-adv-x="574" d="M-63 1597q-1 105 58 168q57 62 147 62q63 0 171 -54q59 -30 95 -30q32 0 49 17.5t24 69.5h132q-3 -115 -58 -172.5t-140 -57.5q-64 0 -168 57q-68 36 -99 36q-34 0 -55 -24q-23 -24 -22 -72h-134zM193 0v1481h196v-1481h-196z" />
<glyph unicode="&#x129;" horiz-adv-x="574" d="M-45 1231q-1 105 58 168q57 62 147 62q63 0 171 -54q59 -30 95 -30q32 0 49 17.5t24 69.5h132q-3 -115 -58 -172.5t-140 -57.5q-64 0 -168 57q-68 36 -99 36q-34 0 -55 -24q-23 -24 -22 -72h-134zM200 0v1073h182v-1073h-182z" />
<glyph unicode="&#x12a;" horiz-adv-x="574" d="M-28 1578v150h631v-150h-631zM193 0v1481h196v-1481h-196z" />
<glyph unicode="&#x12b;" horiz-adv-x="574" d="M-23 1239v150h631v-150h-631zM200 0v1073h182v-1073h-182z" />
<glyph unicode="&#x12c;" horiz-adv-x="574" d="M0 1818h125q14 -69 56 -103t112 -34q82 0 124 33t56 104h124q-15 -127 -92 -194.5t-206 -67.5t-206 67t-93 195zM193 0v1481h196v-1481h-196z" />
<glyph unicode="&#x12d;" horiz-adv-x="574" d="M-6 1479h125q14 -69 56 -103t112 -34q82 0 124 33t56 104h124q-15 -127 -92 -194.5t-206 -67.5t-206 67t-93 195zM200 0v1073h182v-1073h-182z" />
<glyph unicode="&#x12e;" horiz-adv-x="574" d="M165 -207q0 81 35 208v1480h196v-1481h-75q-29 -79 -29 -141q0 -68 41.5 -111t103.5 -43q78 0 170 47v-121q-120 -61 -225 -61q-92 0 -154.5 59.5t-62.5 163.5z" />
<glyph unicode="&#x12f;" horiz-adv-x="459" d="M103 -207q0 66 34 207v1073h182v-1073h-59q-30 -79 -30 -141q0 -68 41.5 -111t104.5 -43q77 0 169 47v-121q-118 -60 -223 -60q-102 0 -160.5 61.5t-58.5 160.5zM137 1272v209h182v-209h-182z" />
<glyph unicode="&#x130;" horiz-adv-x="574" d="M179 1572v226h226v-226h-226zM193 0v1481h196v-1481h-196z" />
<glyph unicode="&#x131;" horiz-adv-x="574" d="M200 0v1073h182v-1073h-182z" />
<glyph unicode="&#x132;" horiz-adv-x="1520" d="M193 0v1481h196v-1481h-196zM600 420l176 24q7 -169 64 -232t157 -63q73 0 126.5 34t74 92t20.5 186v1020h196v-1009q0 -186 -45 -288t-142.5 -155.5t-228.5 -53.5q-195 0 -298.5 112t-99.5 333z" />
<glyph unicode="&#x133;" horiz-adv-x="918" d="M137 0v1073h182v-1073h-182zM137 1272v209h182v-209h-182zM388 -416l34 154q55 -14 86 -14q56 0 83 37t27 184v1128h182v-1132q0 -198 -51 -275q-66 -101 -219 -101q-73 0 -142 19zM618 1270v211h182v-211h-182z" />
<glyph unicode="&#x134;" horiz-adv-x="1034" d="M60 420l176 24q7 -169 64 -232t157 -63q73 0 126.5 34t74 92t20.5 186v1020h196v-1009q0 -186 -45 -288t-142.5 -155.5t-228.5 -53.5q-195 0 -298.5 112t-99.5 333zM479 1572l218 283h194l228 -283h-206l-112 172l-114 -172h-208z" />
<glyph unicode="&#x135;" horiz-adv-x="459" d="M-95 -416l34 154q53 -14 86 -14q64 0 87 42t23 179v1128h182v-1132q0 -199 -59 -287.5t-211 -88.5q-73 0 -142 19zM-89 1206l218 283h194l226 -283h-205l-112 172l-114 -172h-207z" />
<glyph unicode="&#x136;" horiz-adv-x="1379" d="M152 0v1481h195v-735l736 735h265l-621 -600l649 -881h-259l-527 749l-243 -236v-513h-195zM573 -413l11 118q45 -4 88 -4q169 0 169 77q0 67 -129 67q-14 0 -32 -2v107q35 4 67 4q138 0 200.5 -56t62.5 -128q0 -78 -71 -136.5t-225 -58.5q-63 0 -141 12z" />
<glyph unicode="&#x137;" horiz-adv-x="1034" d="M137 0v1481h182v-845l430 437h236l-410 -398l451 -675h-224l-355 548l-128 -123v-425h-182zM400 -413l11 118q45 -4 88 -4q169 0 169 77q0 67 -129 67q-14 0 -32 -2v107q35 4 67 4q138 0 200.5 -56t62.5 -128q0 -78 -71 -136.5t-225 -58.5q-63 0 -141 12z" />
<glyph unicode="&#x138;" horiz-adv-x="1034" d="M135 0v1073h182v-437l430 437h236l-410 -398l451 -675h-224l-355 548l-128 -123v-425h-182z" />
<glyph unicode="&#x139;" horiz-adv-x="1150" d="M152 0v1481h195v-1306h730v-175h-925zM307 1572l135 283h238l-222 -283h-151z" />
<glyph unicode="&#x13a;" horiz-adv-x="459" d="M67 1556l135 283h238l-222 -283h-151zM132 0v1481h182v-1481h-182z" />
<glyph unicode="&#x13b;" horiz-adv-x="1150" d="M152 0v1481h195v-1306h730v-175h-925zM451 -413l11 118q45 -4 88 -4q169 0 169 77q0 67 -129 67q-14 0 -32 -2v107q35 4 67 4q138 0 200.5 -56t62.5 -128q0 -78 -71 -136.5t-225 -58.5q-63 0 -141 12z" />
<glyph unicode="&#x13c;" horiz-adv-x="459" d="M-2 -413l11 118q45 -4 88 -4q169 0 169 77q0 67 -129 67q-14 0 -32 -2v107q35 4 67 4q138 0 200.5 -56t62.5 -128q0 -78 -71 -136.5t-225 -58.5q-63 0 -141 12zM132 0v1481h182v-1481h-182z" />
<glyph unicode="&#x13d;" horiz-adv-x="1150" d="M152 0v1481h195v-1306h730v-175h-925zM707 1058q58 26 85.5 75t29.5 141h-103v207h207v-207q0 -115 -40.5 -185t-127.5 -108z" />
<glyph unicode="&#x13e;" horiz-adv-x="602" d="M137 0v1481h182v-1481h-182zM405 1100q52 23 76.5 67t26.5 127h-92v187h186v-187q0 -102 -36.5 -165t-115.5 -98z" />
<glyph unicode="&#x13f;" horiz-adv-x="1150" d="M152 0v1481h195v-1306h730v-175h-925zM732 643v207h207v-207h-207z" />
<glyph unicode="&#x140;" horiz-adv-x="690" d="M132 0v1481h182v-1481h-182zM477 643v207h207v-207h-207z" />
<glyph unicode="&#x141;" horiz-adv-x="1150" d="M0 446v169l146 125v741h196v-574l336 284v-169l-336 -284v-563h736v-175h-932v571z" />
<glyph unicode="&#x142;" horiz-adv-x="459" d="M3 469v159l131 111v742h181v-588l136 116v-159l-136 -116v-734h-181v580z" />
<glyph unicode="&#x143;" horiz-adv-x="1493" d="M158 0v1481h201l777 -1163v1163h188v-1481h-201l-778 1164v-1164h-187zM575 1572l135 283h238l-222 -283h-151z" />
<glyph unicode="&#x144;" horiz-adv-x="1150" d="M136 0v1073h164v-153q118 177 341 177q97 0 178.5 -35t122 -91.5t56.5 -134.5q10 -50 10 -176v-660h-182v652q0 112 -21 167t-75 87.5t-127 32.5q-116 0 -200.5 -73.5t-84.5 -279.5v-586h-182zM452 1206l135 283h238l-222 -283h-151z" />
<glyph unicode="&#x145;" horiz-adv-x="1493" d="M158 0v1481h201l777 -1163v1163h188v-1481h-201l-778 1164v-1164h-187zM599 -413l11 118q45 -4 88 -4q169 0 169 77q0 67 -129 67q-14 0 -32 -2v107q35 4 67 4q138 0 200.5 -56t62.5 -128q0 -78 -71 -136.5t-225 -58.5q-63 0 -141 12z" />
<glyph unicode="&#x146;" horiz-adv-x="1150" d="M136 0v1073h164v-153q118 177 341 177q97 0 178.5 -35t122 -91.5t56.5 -134.5q10 -50 10 -176v-660h-182v652q0 112 -21 167t-75 87.5t-127 32.5q-116 0 -200.5 -73.5t-84.5 -279.5v-586h-182zM360 -413l11 118q45 -4 88 -4q169 0 169 77q0 67 -129 67q-14 0 -32 -2v107 q35 4 67 4q138 0 200.5 -56t62.5 -128q0 -78 -71 -136.5t-225 -58.5q-63 0 -141 12z" />
<glyph unicode="&#x147;" horiz-adv-x="1493" d="M158 0v1481h201l777 -1163v1163h188v-1481h-201l-778 1164v-1164h-187zM419 1855h208l115 -172l111 172h206l-228 -283h-193z" />
<glyph unicode="&#x148;" horiz-adv-x="1150" d="M136 0v1073h164v-153q118 177 341 177q97 0 178.5 -35t122 -91.5t56.5 -134.5q10 -50 10 -176v-660h-182v652q0 112 -21 167t-75 87.5t-127 32.5q-116 0 -200.5 -73.5t-84.5 -279.5v-586h-182zM268 1489h208l115 -172l111 172h206l-228 -283h-193z" />
<glyph unicode="&#x149;" horiz-adv-x="1249" d="M109 1083q55 22 81.5 70t29.5 132h-95v211h195v-167q0 -135 -31 -195q-44 -82 -135 -123zM378 0v1073h164v-153q118 177 341 177q97 0 178.5 -35t122 -91.5t56.5 -134.5q10 -50 10 -176v-660h-182v652q0 112 -21 167t-75 87.5t-127 32.5q-116 0 -200.5 -73.5 t-84.5 -279.5v-586h-182z" />
<glyph unicode="&#x14a;" horiz-adv-x="1495" d="M167 0v1481h198v-184q116 133 230 171t240 38q183 0 298.5 -82t184.5 -236t69 -426q0 -398 -131.5 -592.5t-353.5 -194.5q-128 0 -251 72l88 155q97 -53 163 -53q78 0 143.5 65.5t104 198t38.5 343.5q0 585 -409 585q-135 0 -236.5 -63t-139.5 -160.5t-38 -308.5v-809 h-198z" />
<glyph unicode="&#x14b;" horiz-adv-x="1150" d="M140 0v1073h164v-153q118 177 341 177q132 0 220.5 -56.5t117.5 -140t29 -240.5v-719q0 -199 -59 -287.5t-211 -88.5q-73 0 -142 19l34 154q54 -14 86 -14q66 0 88 44.5t22 176.5v707q0 150 -52.5 218.5t-172.5 68.5q-118 0 -200.5 -75.5t-82.5 -277.5v-586h-182z" />
<glyph unicode="&#x14c;" horiz-adv-x="1608" d="M100 721q0 369 198 577.5t511 208.5q205 0 369.5 -98t251 -273t86.5 -398q0 -225 -91 -402.5t-257.5 -269t-359.5 -91.5q-209 0 -373.5 101t-249.5 275.5t-85 369.5zM302 718q0 -268 144 -422t361 -154q221 0 364 155.5t143 441.5q0 181 -61 316t-179 209t-264 74 q-208 0 -358 -143t-150 -477zM509 1615v150h631v-150h-631z" />
<glyph unicode="&#x14d;" horiz-adv-x="1150" d="M70 536q0 298 165 442q139 119 338 119q221 0 361.5 -145t140.5 -401q0 -207 -62 -325.5t-181 -184t-259 -65.5q-225 0 -364 144.5t-139 415.5zM257 536q0 -206 89.5 -308.5t226.5 -102.5q135 0 225 103t90 314q0 199 -90.5 301.5t-224.5 102.5q-137 0 -226.5 -102 t-89.5 -308zM266 1239v150h631v-150h-631z" />
<glyph unicode="&#x14e;" horiz-adv-x="1608" d="M100 721q0 369 198 577.5t511 208.5q205 0 369.5 -98t251 -273t86.5 -398q0 -225 -91 -402.5t-257.5 -269t-359.5 -91.5q-209 0 -373.5 101t-249.5 275.5t-85 369.5zM302 718q0 -268 144 -422t361 -154q221 0 364 155.5t143 441.5q0 181 -61 316t-179 209t-264 74 q-208 0 -358 -143t-150 -477zM526 1845h125q14 -69 56 -103t112 -34q82 0 124 33t56 104h124q-15 -127 -92 -194.5t-206 -67.5t-206 67t-93 195z" />
<glyph unicode="&#x14f;" horiz-adv-x="1150" d="M70 536q0 298 165 442q139 119 338 119q221 0 361.5 -145t140.5 -401q0 -207 -62 -325.5t-181 -184t-259 -65.5q-225 0 -364 144.5t-139 415.5zM257 536q0 -206 89.5 -308.5t226.5 -102.5q135 0 225 103t90 314q0 199 -90.5 301.5t-224.5 102.5q-137 0 -226.5 -102 t-89.5 -308zM283 1479h125q14 -69 56 -103t112 -34q82 0 124 33t56 104h124q-15 -127 -92 -194.5t-206 -67.5t-206 67t-93 195z" />
<glyph unicode="&#x150;" horiz-adv-x="1608" d="M100 721q0 369 198 577.5t511 208.5q205 0 369.5 -98t251 -273t86.5 -398q0 -225 -91 -402.5t-257.5 -269t-359.5 -91.5q-209 0 -373.5 101t-249.5 275.5t-85 369.5zM302 718q0 -268 144 -422t361 -154q221 0 364 155.5t143 441.5q0 181 -61 316t-179 209t-264 74 q-208 0 -358 -143t-150 -477zM478 1572l122 283h236l-213 -283h-145zM828 1572l128 283h234l-209 -283h-153z" />
<glyph unicode="&#x151;" horiz-adv-x="1150" d="M70 536q0 298 165 442q139 119 338 119q221 0 361.5 -145t140.5 -401q0 -207 -62 -325.5t-181 -184t-259 -65.5q-225 0 -364 144.5t-139 415.5zM257 536q0 -206 89.5 -308.5t226.5 -102.5q135 0 225 103t90 314q0 199 -90.5 301.5t-224.5 102.5q-137 0 -226.5 -102 t-89.5 -308zM286 1206l122 283h236l-213 -283h-145zM636 1206l128 283h234l-209 -283h-153z" />
<glyph unicode="&#x152;" horiz-adv-x="2068" d="M130 742q0 326 143.5 545t454.5 219q267 0 404 -225v200h840v-175h-657v-453h605v-173h-605v-505h688v-175h-871v214q-136 -239 -404 -239q-304 0 -460 234q-138 207 -138 533zM332 727q0 -306 117 -450.5t278 -144.5q163 0 278.5 144t115.5 476q0 310 -116.5 452.5 t-277.5 142.5q-102 0 -199 -65.5t-146.5 -199.5t-49.5 -355z" />
<glyph unicode="&#x153;" horiz-adv-x="1952" d="M83 523q0 171 59 306t179.5 201.5t268.5 66.5q139 0 242.5 -58t155.5 -147q64 94 165.5 149.5t227.5 55.5q222 0 359.5 -152.5t135.5 -456.5h-792q3 -168 93.5 -265.5t225.5 -97.5q100 0 172 56t105 168l181 -26q-43 -166 -161.5 -256.5t-299.5 -90.5q-135 0 -242.5 53 t-169.5 148q-77 -100 -177 -150.5t-223 -50.5q-227 0 -366 144.5t-139 402.5zM270 538q0 -188 71 -286q93 -127 242 -127q130 0 223 107t93 308q0 200 -91.5 303.5t-224.5 103.5q-88 0 -162 -49.5t-112.5 -146.5t-38.5 -213zM1091 637h593q-12 153 -92.5 231.5t-199.5 78.5 q-121 0 -205.5 -82.5t-95.5 -227.5z" />
<glyph unicode="&#x154;" horiz-adv-x="1493" d="M163 0v1481h656q198 0 301 -40t164.5 -141t61.5 -223q0 -158 -102 -266t-315 -137q78 -38 118 -74q86 -79 163 -197l258 -403h-247l-196 308q-86 133 -141.5 204t-99.5 99t-89 39q-33 8 -109 8h-227v-658h-196zM359 827h421q134 0 210 28t115 89t39 133q0 105 -76 172.5 t-241 67.5h-468v-490zM508 1572l135 283h238l-222 -283h-151z" />
<glyph unicode="&#x155;" horiz-adv-x="688" d="M134 0v1073h164v-163q63 114 116 150.5t116 36.5q92 0 187 -59l-63 -168q-66 39 -133 39q-59 0 -106.5 -36t-68.5 -99q-30 -97 -30 -212v-562h-182zM244 1206l135 283h238l-222 -283h-151z" />
<glyph unicode="&#x156;" horiz-adv-x="1493" d="M163 0v1481h656q198 0 301 -40t164.5 -141t61.5 -223q0 -158 -102 -266t-315 -137q78 -38 118 -74q86 -79 163 -197l258 -403h-247l-196 308q-86 133 -141.5 204t-99.5 99t-89 39q-33 8 -109 8h-227v-658h-196zM359 827h421q134 0 210 28t115 89t39 133q0 105 -76 172.5 t-241 67.5h-468v-490zM599 -413l11 118q45 -4 88 -4q169 0 169 77q0 67 -129 67q-14 0 -32 -2v107q35 4 67 4q138 0 200.5 -56t62.5 -128q0 -78 -71 -136.5t-225 -58.5q-63 0 -141 12z" />
<glyph unicode="&#x157;" horiz-adv-x="688" d="M134 0v1073h164v-163q63 114 116 150.5t116 36.5q92 0 187 -59l-63 -168q-66 39 -133 39q-59 0 -106.5 -36t-68.5 -99q-30 -97 -30 -212v-562h-182zM145 -413l11 118q45 -4 88 -4q169 0 169 77q0 67 -129 67q-14 0 -32 -2v107q35 4 67 4q138 0 200.5 -56t62.5 -128 q0 -78 -71 -136.5t-225 -58.5q-63 0 -141 12z" />
<glyph unicode="&#x158;" horiz-adv-x="1493" d="M163 0v1481h656q198 0 301 -40t164.5 -141t61.5 -223q0 -158 -102 -266t-315 -137q78 -38 118 -74q86 -79 163 -197l258 -403h-247l-196 308q-86 133 -141.5 204t-99.5 99t-89 39q-33 8 -109 8h-227v-658h-196zM333 1849h208l115 -172l111 172h206l-228 -283h-193z M359 827h421q134 0 210 28t115 89t39 133q0 105 -76 172.5t-241 67.5h-468v-490z" />
<glyph unicode="&#x159;" horiz-adv-x="688" d="M60 1489h208l115 -172l111 172h206l-228 -283h-193zM134 0v1073h164v-163q63 114 116 150.5t116 36.5q92 0 187 -59l-63 -168q-66 39 -133 39q-59 0 -106.5 -36t-68.5 -99q-30 -97 -30 -212v-562h-182z" />
<glyph unicode="&#x15a;" horiz-adv-x="1379" d="M93 476l185 16q13 -111 61 -182.5t149 -115.5t227 -44q112 0 198 33.5t128 91.5t42 127q0 70 -40.5 122t-133.5 87q-60 23 -264 72t-285 93q-106 55 -158.5 137.5t-52.5 184.5q0 112 64 209.5t186 148t272 50.5q164 0 290 -53t193.5 -156t72.5 -233l-188 -15 q-15 141 -102.5 212.5t-257.5 71.5q-178 0 -259.5 -65t-81.5 -157q0 -80 58 -131q56 -52 295 -106t328 -94q129 -60 191 -151.5t62 -210.5q0 -118 -68 -222.5t-194.5 -162.5t-285.5 -58q-201 0 -337 58.5t-213 176t-81 266.5zM497 1572l135 283h238l-222 -283h-151z" />
<glyph unicode="&#x15b;" horiz-adv-x="1034" d="M64 320l179 28q16 -108 85 -165.5t193 -57.5q125 0 186 51t61 120q0 62 -54 97q-37 24 -186 61q-200 51 -277 88t-117 102t-40 144q0 72 33 133t89 101q43 31 116 53t157 22q126 0 221.5 -36.5t141 -98.5t62.5 -166l-178 -24q-12 82 -70 128.5t-164 46.5 q-125 0 -178.5 -41t-53.5 -97q0 -35 22 -64t70 -48q27 -10 160 -47q193 -51 269.5 -84t119.5 -95.5t43 -155.5q0 -91 -53 -171t-153 -124t-226 -44q-209 0 -318.5 86.5t-139.5 257.5zM398 1206l135 283h238l-222 -283h-151z" />
<glyph unicode="&#x15c;" horiz-adv-x="1379" d="M93 476l185 16q13 -111 61 -182.5t149 -115.5t227 -44q112 0 198 33.5t128 91.5t42 127q0 70 -40.5 122t-133.5 87q-60 23 -264 72t-285 93q-106 55 -158.5 137.5t-52.5 184.5q0 112 64 209.5t186 148t272 50.5q164 0 290 -53t193.5 -156t72.5 -233l-188 -15 q-15 141 -102.5 212.5t-257.5 71.5q-178 0 -259.5 -65t-81.5 -157q0 -80 58 -131q56 -52 295 -106t328 -94q129 -60 191 -151.5t62 -210.5q0 -118 -68 -222.5t-194.5 -162.5t-285.5 -58q-201 0 -337 58.5t-213 176t-81 266.5zM360 1566l218 283h194l228 -283h-206l-112 172 l-114 -172h-208z" />
<glyph unicode="&#x15d;" horiz-adv-x="1034" d="M64 320l179 28q16 -108 85 -165.5t193 -57.5q125 0 186 51t61 120q0 62 -54 97q-37 24 -186 61q-200 51 -277 88t-117 102t-40 144q0 72 33 133t89 101q43 31 116 53t157 22q126 0 221.5 -36.5t141 -98.5t62.5 -166l-178 -24q-12 82 -70 128.5t-164 46.5 q-125 0 -178.5 -41t-53.5 -97q0 -35 22 -64t70 -48q27 -10 160 -47q193 -51 269.5 -84t119.5 -95.5t43 -155.5q0 -91 -53 -171t-153 -124t-226 -44q-209 0 -318.5 86.5t-139.5 257.5zM217 1206l218 283h194l228 -283h-206l-112 172l-114 -172h-208z" />
<glyph unicode="&#x15e;" horiz-adv-x="1379" d="M93 476l185 16q13 -111 61 -182.5t149 -115.5t227 -44q112 0 198 33.5t128 91.5t42 127q0 70 -40.5 122t-133.5 87q-60 23 -264 72t-285 93q-106 55 -158.5 137.5t-52.5 184.5q0 112 64 209.5t186 148t272 50.5q164 0 290 -53t193.5 -156t72.5 -233l-188 -15 q-15 141 -102.5 212.5t-257.5 71.5q-178 0 -259.5 -65t-81.5 -157q0 -80 58 -131q56 -52 295 -106t328 -94q129 -60 191 -151.5t62 -210.5q0 -118 -68 -222.5t-194.5 -162.5t-285.5 -58q-201 0 -337 58.5t-213 176t-81 266.5zM450 -403l11 118q65 -4 95 -4q95 0 133 26 q30 21 30 50q0 18 -11.5 32t-43 24t-104.5 11l53 179h135l-33 -108q86 -10 129 -53t43 -95q0 -76 -72.5 -134t-218.5 -58q-83 0 -146 12z" />
<glyph unicode="&#x15f;" horiz-adv-x="1034" d="M64 320l179 28q16 -108 85 -165.5t193 -57.5q125 0 186 51t61 120q0 62 -54 97q-37 24 -186 61q-200 51 -277 88t-117 102t-40 144q0 72 33 133t89 101q43 31 116 53t157 22q126 0 221.5 -36.5t141 -98.5t62.5 -166l-178 -24q-12 82 -70 128.5t-164 46.5 q-125 0 -178.5 -41t-53.5 -97q0 -35 22 -64t70 -48q27 -10 160 -47q193 -51 269.5 -84t119.5 -95.5t43 -155.5q0 -91 -53 -171t-153 -124t-226 -44q-209 0 -318.5 86.5t-139.5 257.5zM269 -393l11 118q65 -4 95 -4q95 0 133 26q30 21 30 50q0 18 -11.5 32t-43 24t-104.5 11 l53 179h135l-33 -108q86 -10 129 -53t43 -95q0 -76 -72.5 -134t-218.5 -58q-83 0 -146 12z" />
<glyph unicode="&#x160;" horiz-adv-x="1379" d="M93 476l185 16q13 -111 61 -182.5t149 -115.5t227 -44q112 0 198 33.5t128 91.5t42 127q0 70 -40.5 122t-133.5 87q-60 23 -264 72t-285 93q-106 55 -158.5 137.5t-52.5 184.5q0 112 64 209.5t186 148t272 50.5q164 0 290 -53t193.5 -156t72.5 -233l-188 -15 q-15 141 -102.5 212.5t-257.5 71.5q-178 0 -259.5 -65t-81.5 -157q0 -80 58 -131q56 -52 295 -106t328 -94q129 -60 191 -151.5t62 -210.5q0 -118 -68 -222.5t-194.5 -162.5t-285.5 -58q-201 0 -337 58.5t-213 176t-81 266.5zM339 1849h208l115 -172l111 172h206l-228 -283 h-193z" />
<glyph unicode="&#x161;" horiz-adv-x="1034" d="M64 320l179 28q16 -108 85 -165.5t193 -57.5q125 0 186 51t61 120q0 62 -54 97q-37 24 -186 61q-200 51 -277 88t-117 102t-40 144q0 72 33 133t89 101q43 31 116 53t157 22q126 0 221.5 -36.5t141 -98.5t62.5 -166l-178 -24q-12 82 -70 128.5t-164 46.5 q-125 0 -178.5 -41t-53.5 -97q0 -35 22 -64t70 -48q27 -10 160 -47q193 -51 269.5 -84t119.5 -95.5t43 -155.5q0 -91 -53 -171t-153 -124t-226 -44q-209 0 -318.5 86.5t-139.5 257.5zM189 1489h208l115 -172l111 172h206l-228 -283h-193z" />
<glyph unicode="&#x162;" horiz-adv-x="1263" d="M48 1306v175h1174v-175h-490v-1306h-196v1306h-488zM516 -508q61 27 91 79q20 33 24 100h-103v207h207v-207q0 -182 -168 -256z" />
<glyph unicode="&#x163;" horiz-adv-x="574" d="M36 931v142h134v265l180 109v-374h183v-142h-183v-627q0 -78 10 -100t31.5 -35t61.5 -13q31 0 80 7l27 -161q-77 -16 -138 -16q-99 0 -153.5 31t-76.5 82t-22 215v617h-134zM268 -468q96 43 103 160h-93v186h187v-186q0 -71 -37 -133t-116 -96z" />
<glyph unicode="&#x164;" horiz-adv-x="1263" d="M48 1306v175h1174v-175h-490v-1306h-196v1306h-488zM314 1849h208l115 -172l111 172h206l-228 -283h-193z" />
<glyph unicode="&#x165;" horiz-adv-x="775" d="M35 931v142h134v265l180 109v-374h183v-142h-183v-627q0 -78 10 -100t31.5 -35t61.5 -13q31 0 80 7l27 -161q-77 -16 -138 -16q-99 0 -153.5 31t-76.5 82t-22 215v617h-134zM576 1100q51 23 76 67t27 127h-92v187h186v-187q0 -102 -36.5 -165t-115.5 -98z" />
<glyph unicode="&#x166;" horiz-adv-x="1263" d="M48 1306v175h1174v-175h-490v-537h332v-134h-332v-635h-196v635h-333v134h333v537h-488z" />
<glyph unicode="&#x167;" horiz-adv-x="574" d="M12 519v133h134v279h-133v142h133v265l182 109v-374h182v-142h-182v-279h174v-133h-174v-215q0 -86 19 -117t83 -31q33 0 80 7l26 -161q-73 -16 -135 -16q-107 0 -165 36.5t-74 95.5t-16 196v205h-134z" />
<glyph unicode="&#x168;" horiz-adv-x="1493" d="M163 625v856h196v-855q0 -193 35.5 -284.5t123 -140.5t213.5 -49q216 0 308 97.5t92 376.5v855h196v-856q0 -223 -50.5 -354.5t-182 -213.5t-346.5 -82q-208 0 -340 71.5t-188.5 207.5t-56.5 371zM431 1591q-1 105 58 168q57 62 147 62q63 0 171 -54q59 -30 95 -30 q32 0 49 17.5t24 69.5h132q-3 -115 -58 -172.5t-140 -57.5q-64 0 -168 57q-68 36 -99 36q-34 0 -55 -24q-23 -24 -22 -72h-134z" />
<glyph unicode="&#x169;" horiz-adv-x="1150" d="M132 408v665h182v-595q0 -143 11 -192q17 -72 72.5 -113t137.5 -41t154 42t101.5 114.5t29.5 209.5v575h182v-1073h-163v158q-125 -182 -340 -182q-95 0 -177.5 36t-122 91.5t-56.5 134.5q-11 54 -11 170zM245 1231q-1 105 58 168q57 62 147 62q63 0 171 -54 q59 -30 95 -30q32 0 49 17.5t24 69.5h132q-3 -115 -58 -172.5t-140 -57.5q-64 0 -168 57q-68 36 -99 36q-34 0 -55 -24q-23 -24 -22 -72h-134z" />
<glyph unicode="&#x16a;" horiz-adv-x="1493" d="M163 625v856h196v-855q0 -193 35.5 -284.5t123 -140.5t213.5 -49q216 0 308 97.5t92 376.5v855h196v-856q0 -223 -50.5 -354.5t-182 -213.5t-346.5 -82q-208 0 -340 71.5t-188.5 207.5t-56.5 371zM453 1599v150h631v-150h-631z" />
<glyph unicode="&#x16b;" horiz-adv-x="1150" d="M132 408v665h182v-595q0 -143 11 -192q17 -72 72.5 -113t137.5 -41t154 42t101.5 114.5t29.5 209.5v575h182v-1073h-163v158q-125 -182 -340 -182q-95 0 -177.5 36t-122 91.5t-56.5 134.5q-11 54 -11 170zM267 1239v150h631v-150h-631z" />
<glyph unicode="&#x16c;" horiz-adv-x="1493" d="M163 625v856h196v-855q0 -193 35.5 -284.5t123 -140.5t213.5 -49q216 0 308 97.5t92 376.5v855h196v-856q0 -223 -50.5 -354.5t-182 -213.5t-346.5 -82q-208 0 -340 71.5t-188.5 207.5t-56.5 371zM450 1839h125q14 -69 56 -103t112 -34q82 0 124 33t56 104h124 q-15 -127 -92 -194.5t-206 -67.5t-206 67t-93 195z" />
<glyph unicode="&#x16d;" horiz-adv-x="1150" d="M132 408v665h182v-595q0 -143 11 -192q17 -72 72.5 -113t137.5 -41t154 42t101.5 114.5t29.5 209.5v575h182v-1073h-163v158q-125 -182 -340 -182q-95 0 -177.5 36t-122 91.5t-56.5 134.5q-11 54 -11 170zM284 1479h125q14 -69 56 -103t112 -34q82 0 124 33t56 104h124 q-15 -127 -92 -194.5t-206 -67.5t-206 67t-93 195z" />
<glyph unicode="&#x16e;" horiz-adv-x="1493" d="M163 625v856h196v-855q0 -193 35.5 -284.5t123 -140.5t213.5 -49q216 0 308 97.5t92 376.5v855h196v-856q0 -223 -50.5 -354.5t-182 -213.5t-346.5 -82q-208 0 -340 71.5t-188.5 207.5t-56.5 371zM562 1672q0 74 54 127.5t127 53.5q75 0 128.5 -54t53.5 -131 t-53.5 -130.5t-127.5 -53.5q-75 0 -128.5 54t-53.5 134zM638 1671q0 -47 32 -79.5t75 -32.5q44 0 75.5 32.5t31.5 77.5q0 46 -31 78t-76 32q-43 0 -75 -31.5t-32 -76.5z" />
<glyph unicode="&#x16f;" horiz-adv-x="1150" d="M132 408v665h182v-595q0 -143 11 -192q17 -72 72.5 -113t137.5 -41t154 42t101.5 114.5t29.5 209.5v575h182v-1073h-163v158q-125 -182 -340 -182q-95 0 -177.5 36t-122 91.5t-56.5 134.5q-11 54 -11 170zM386 1351q0 74 54 127.5t127 53.5q75 0 128.5 -54t53.5 -131 t-53.5 -130.5t-127.5 -53.5q-75 0 -128.5 54t-53.5 134zM462 1350q0 -47 32 -79.5t75 -32.5q44 0 75.5 32.5t31.5 77.5q0 46 -31 78t-76 32q-43 0 -75 -31.5t-32 -76.5z" />
<glyph unicode="&#x170;" horiz-adv-x="1493" d="M163 625v856h196v-855q0 -193 35.5 -284.5t123 -140.5t213.5 -49q216 0 308 97.5t92 376.5v855h196v-856q0 -223 -50.5 -354.5t-182 -213.5t-346.5 -82q-208 0 -340 71.5t-188.5 207.5t-56.5 371zM470 1572l122 283h236l-213 -283h-145zM820 1572l128 283h234l-209 -283 h-153z" />
<glyph unicode="&#x171;" horiz-adv-x="1150" d="M132 408v665h182v-595q0 -143 11 -192q17 -72 72.5 -113t137.5 -41t154 42t101.5 114.5t29.5 209.5v575h182v-1073h-163v158q-125 -182 -340 -182q-95 0 -177.5 36t-122 91.5t-56.5 134.5q-11 54 -11 170zM241 1206l122 283h236l-213 -283h-145zM591 1206l128 283h234 l-209 -283h-153z" />
<glyph unicode="&#x172;" horiz-adv-x="1493" d="M163 625v856h196v-855q0 -193 36.5 -286.5t126 -140.5t206.5 -47q221 0 312 98.5t91 375.5v855h196v-856q0 -195 -39.5 -325t-160.5 -221t-333 -103q-20 -72 -20 -114q0 -72 41 -114.5t104 -42.5q78 0 170 47v-121q-119 -61 -221 -61q-99 0 -160.5 60.5t-61.5 162.5 q0 71 29 185q-272 23 -392 165.5t-120 481.5z" />
<glyph unicode="&#x173;" horiz-adv-x="1150" d="M132 408v665h182v-595q0 -141 13 -201t68.5 -102.5t139.5 -42.5q92 0 164.5 48.5t96.5 121.5t24 196v575h182v-1073h-40q-30 -79 -30 -141q0 -68 41.5 -111t104.5 -43q76 0 169 47v-121q-118 -60 -223 -60q-99 0 -159 60.5t-60 161.5q0 68 26 174l8 33v158 q-125 -182 -341 -182q-127 0 -216.5 56.5t-119.5 141t-30 234.5z" />
<glyph unicode="&#x174;" horiz-adv-x="1952" d="M25 1481h201l225 -971q37 -152 63 -303q57 237 67 274l282 1000h236l212 -750q80 -279 115 -524q28 140 74 322l232 952h197l-406 -1481h-189l-312 1128q-39 142 -46 174q-24 -102 -44 -174l-314 -1128h-200zM651 1572l218 283h194l228 -283h-206l-112 172l-114 -172 h-208z" />
<glyph unicode="&#x175;" horiz-adv-x="1493" d="M6 1073h188l171 -620l63 -230q4 17 56 221l170 629h187l161 -623l53 -205l62 207l184 621h177l-336 -1073h-189l-170 642l-42 183l-217 -825h-190zM439 1206l218 283h194l228 -283h-206l-112 172l-114 -172h-208z" />
<glyph unicode="&#x176;" horiz-adv-x="1379" d="M6 1481h238l292 -447q81 -125 151 -250q66 116 161 261l287 436h229l-591 -854v-627h-196v627zM394 1572l218 283h194l228 -283h-206l-112 172l-114 -172h-208z" />
<glyph unicode="&#x177;" horiz-adv-x="1034" d="M33 1073h196l223 -622q44 -118 78 -248q32 125 75 244l229 626h182l-408 -1091q-66 -177 -102 -244q-48 -89 -111 -131t-150 -42q-52 0 -117 22l-20 171q60 -17 104 -17q61 0 97 20.5t60 56.5q17 27 55 136q5 15 16 44zM242 1206l218 283h194l228 -283h-206l-112 172 l-114 -172h-208z" />
<glyph unicode="&#x178;" horiz-adv-x="1379" d="M6 1481h238l292 -447q81 -125 151 -250q66 116 161 261l287 436h229l-591 -854v-627h-196v627zM401 1572v207h189v-207h-189zM777 1572v207h190v-207h-190z" />
<glyph unicode="&#x179;" horiz-adv-x="1263" d="M41 0v182l759 948q81 101 153 176h-826v175h1061v-175l-831 -1027l-90 -104h945v-175h-1171zM478 1572l135 283h238l-222 -283h-151z" />
<glyph unicode="&#x17a;" horiz-adv-x="1034" d="M40 0v147l683 784q-116 -6 -205 -6h-437v148h876v-121l-580 -680l-112 -125q122 10 229 10h496v-157h-950zM395 1206l135 283h238l-222 -283h-151z" />
<glyph unicode="&#x17b;" horiz-adv-x="1263" d="M41 0v182l759 948q81 101 153 176h-826v175h1061v-175l-831 -1027l-90 -104h945v-175h-1171zM538 1572v226h226v-226h-226z" />
<glyph unicode="&#x17c;" horiz-adv-x="1034" d="M40 0v147l683 784q-116 -6 -205 -6h-437v148h876v-121l-580 -680l-112 -125q122 10 229 10h496v-157h-950zM402 1206v226h226v-226h-226z" />
<glyph unicode="&#x17d;" horiz-adv-x="1263" d="M41 0v182l759 948q81 101 153 176h-826v175h1061v-175l-831 -1027l-90 -104h945v-175h-1171zM319 1849h208l115 -172l111 172h206l-228 -283h-193z" />
<glyph unicode="&#x17e;" horiz-adv-x="1034" d="M40 0v147l683 784q-116 -6 -205 -6h-437v148h876v-121l-580 -680l-112 -125q122 10 229 10h496v-157h-950zM226 1489h208l115 -172l111 172h206l-228 -283h-193z" />
<glyph unicode="&#x17f;" horiz-adv-x="459" d="M138 0v1187q0 116 27.5 180t95 101.5t174.5 37.5q80 0 169 -18l-26 -159q-55 10 -107 10q-91 0 -121 -40t-30 -127v-1172h-182z" />
<glyph unicode="&#x18f;" horiz-adv-x="1556" d="M100 756v95h1152q-12 223 -130 350q-125 133 -343 133q-320 0 -404 -310l-192 51q56 210 218 323q155 108 377 108q202 0 362 -99q165 -100 248 -282q71 -155 75 -369q8 -336 -159 -555q-172 -226 -522 -226t-521 226q-161 212 -161 555zM303 677q11 -249 138.5 -393.5 t340.5 -144.5t340 144.5t138 393.5h-957z" />
<glyph unicode="&#x192;" horiz-adv-x="1150" d="M46 -409l36 157q102 -23 153 -23q55 0 84 28.5t46 125.5l178 1052h-203l25 142h203l24 134q22 121 45 167q32 62 90 97.5t152 35.5q81 0 217 -38l-36 -155q-104 24 -155 24q-57 0 -85 -27.5t-47 -133.5l-20 -104h207l-26 -142h-206l-193 -1103q-26 -149 -87.5 -206 t-174.5 -57q-95 0 -227 26z" />
<glyph unicode="&#x1a0;" horiz-adv-x="1773" d="M100 721q0 364 198 578q193 208 511 208q229 0 406.5 -125t251.5 -335q91 50 129 106q30 46 29 133h-95v211h195v-167q0 -125 -38 -192q-53 -92 -197 -168q26 -109 26 -232q0 -226 -91.5 -403t-257.5 -268.5t-359 -91.5q-208 0 -373 100.5t-250 275.5t-85 370zM302 718 q0 -262 144 -422q140 -154 361 -154q226 0 365 156q142 162 142 441q0 374 -239 526q-119 73 -265 73q-225 0 -358 -142q-150 -162 -150 -478z" />
<glyph unicode="&#x1a1;" horiz-adv-x="1356" d="M69 536q0 298 165 442q139 119 338 119q221 0 361 -145q106 -110 133 -283q68 42 98 87.5t29 131.5h-95v211h195v-167q0 -125 -39 -192q-49 -87 -180 -159v-30q0 -375 -243 -510q-119 -65 -259 -65q-231 0 -365 144q-138 150 -138 416zM256 536q0 -199 89 -308 q85 -103 227 -103q141 0 225 103q90 110 90 314q0 193 -91 301q-85 103 -224 103q-143 0 -227 -102q-89 -109 -89 -308z" />
<glyph unicode="&#x1af;" horiz-adv-x="1766" d="M163 625v856h196v-855q0 -191 36 -285q34 -90 122 -139.5t214 -49.5q221 0 308 97q92 103 92 377v855h196v-498q158 16 228 125q28 42 28 162h-95v211h195v-167q0 -159 -37 -221q-100 -175 -319 -185v-283q0 -227 -50 -354q-53 -133 -182 -213q-132 -83 -347 -83 q-413 0 -529 280q-56 135 -56 370z" />
<glyph unicode="&#x1b0;" horiz-adv-x="1384" d="M132 408v665h182v-595q0 -145 11 -192q36 -154 210 -154q84 0 155.5 42.5t100.5 114.5t29 209v575h182v-493q128 22 192 120q28 42 28 162h-95v211h195v-167q0 -159 -36 -221q-93 -162 -284 -182v-503h-163v158q-125 -182 -340 -182q-94 0 -176.5 35.5t-122.5 91.5 t-57 135q-11 55 -11 170z" />
<glyph unicode="&#x1cd;" horiz-adv-x="1379" d="M-3 0l569 1481h211l606 -1481h-224l-172 448h-619l-163 -448h-208zM353 1844h208l115 -172l111 172h206l-228 -283h-193zM424 608h502l-154 410q-71 187 -105 307q-29 -142 -80 -283z" />
<glyph unicode="&#x1ce;" horiz-adv-x="1150" d="M75 283q0 79 35.5 144t94 104.5t130.5 59.5q54 14 162 27q220 26 324 63q1 37 1 47q0 111 -51 157q-70 61 -207 61q-129 0 -190 -45t-90 -159l-178 25q24 114 79.5 184t160.5 108t244 38q137 0 223 -32.5t126.5 -81.5t56.5 -123q9 -47 9 -168v-243q0 -253 11.5 -320 t46.5 -129h-190q-29 57 -37 132q-101 -86 -194.5 -121t-200.5 -35q-176 0 -271 86t-95 221zM269 288q0 -73 55 -121.5t161 -48.5q105 0 186.5 46t120.5 126q29 61 29 182v66q-99 -40 -297 -68q-112 -17 -158.5 -37t-71.5 -59t-25 -86zM287 1489h208l115 -172l111 172h206 l-228 -283h-193z" />
<glyph unicode="&#x1cf;" horiz-adv-x="574" d="M-30 1844h208l115 -172l111 172h206l-228 -283h-193zM193 0v1481h196v-1481h-196z" />
<glyph unicode="&#x1d0;" horiz-adv-x="459" d="M-80 1489h208l115 -172l111 172h206l-228 -283h-193zM137 0v1073h182v-1073h-182z" />
<glyph unicode="&#x1d1;" horiz-adv-x="1608" d="M100 721q0 369 198 577.5t511 208.5q205 0 369.5 -98t251 -273t86.5 -398q0 -225 -91 -402.5t-257.5 -269t-359.5 -91.5q-209 0 -373.5 101t-249.5 275.5t-85 369.5zM302 718q0 -268 144 -422t361 -154q221 0 364 155.5t143 441.5q0 181 -61 316t-179 209t-264 74 q-208 0 -358 -143t-150 -477zM494 1844h208l115 -172l111 172h206l-228 -283h-193z" />
<glyph unicode="&#x1d2;" horiz-adv-x="1150" d="M70 536q0 298 165 442q139 119 338 119q221 0 361.5 -145t140.5 -401q0 -207 -62 -325.5t-181 -184t-259 -65.5q-225 0 -364 144.5t-139 415.5zM252 1489h208l115 -172l111 172h206l-228 -283h-193zM257 536q0 -206 89.5 -308.5t226.5 -102.5q135 0 225 103t90 314 q0 199 -90.5 301.5t-224.5 102.5q-137 0 -226.5 -102t-89.5 -308z" />
<glyph unicode="&#x1d3;" horiz-adv-x="1493" d="M163 625v856h196v-855q0 -193 35.5 -284.5t123 -140.5t213.5 -49q216 0 308 97.5t92 376.5v855h196v-856q0 -223 -50.5 -354.5t-182 -213.5t-346.5 -82q-208 0 -340 71.5t-188.5 207.5t-56.5 371zM444 1844h208l115 -172l111 172h206l-228 -283h-193z" />
<glyph unicode="&#x1d4;" horiz-adv-x="1150" d="M132 408v665h182v-595q0 -143 11 -192q17 -72 72.5 -113t137.5 -41t154 42t101.5 114.5t29.5 209.5v575h182v-1073h-163v158q-125 -182 -340 -182q-95 0 -177.5 36t-122 91.5t-56.5 134.5q-11 54 -11 170zM262 1489h208l115 -172l111 172h206l-228 -283h-193z" />
<glyph unicode="&#x1d5;" horiz-adv-x="1493" d="M163 625v856h196v-855q0 -193 35.5 -284.5t123 -140.5t213.5 -49q216 0 308 97.5t92 376.5v855h196v-856q0 -223 -50.5 -354.5t-182 -213.5t-346.5 -82q-208 0 -340 71.5t-188.5 207.5t-56.5 371zM497 1511v148h137v-148h-137zM497 1743v118h522v-118h-522zM882 1511v148 h137v-148h-137z" />
<glyph unicode="&#x1d6;" horiz-adv-x="1150" d="M132 408v665h182v-595q0 -143 11 -192q17 -72 72.5 -113t137.5 -41t154 42t101.5 114.5t29.5 209.5v575h182v-1073h-163v158q-125 -182 -340 -182q-95 0 -177.5 36t-122 91.5t-56.5 134.5q-11 54 -11 170zM251 1613v150h631v-150h-631zM284 1283v207h189v-207h-189z M660 1283v207h190v-207h-190z" />
<glyph unicode="&#x1d7;" horiz-adv-x="1493" d="M163 625v856h196v-855q0 -193 35.5 -284.5t123 -140.5t213.5 -49q216 0 308 97.5t92 376.5v855h196v-856q0 -223 -50.5 -354.5t-182 -213.5t-346.5 -82q-208 0 -340 71.5t-188.5 207.5t-56.5 371zM497 1511v148h137v-148h-137zM649 1683l136 179h229l-234 -179h-131z M882 1511v148h137v-148h-137z" />
<glyph unicode="&#x1d8;" horiz-adv-x="1150" d="M132 408v665h182v-595q0 -143 11 -192q17 -72 72.5 -113t137.5 -41t154 42t101.5 114.5t29.5 209.5v575h182v-1073h-163v158q-125 -182 -340 -182q-95 0 -177.5 36t-122 91.5t-56.5 134.5q-11 54 -11 170zM284 1283v207h189v-207h-189zM457 1580l135 283h238l-222 -283 h-151zM660 1283v207h190v-207h-190z" />
<glyph unicode="&#x1d9;" horiz-adv-x="1493" d="M163 625v856h196v-855q0 -193 35.5 -284.5t123 -140.5t213.5 -49q216 0 308 97.5t92 376.5v855h196v-856q0 -223 -50.5 -354.5t-182 -213.5t-346.5 -82q-208 0 -340 71.5t-188.5 207.5t-56.5 371zM497 1511v148h137v-148h-137zM528 1862h150l82 -99l80 99h148l-163 -178 h-140zM882 1511v148h137v-148h-137z" />
<glyph unicode="&#x1da;" horiz-adv-x="1150" d="M132 408v665h182v-595q0 -143 11 -192q17 -72 72.5 -113t137.5 -41t154 42t101.5 114.5t29.5 209.5v575h182v-1073h-163v158q-125 -182 -340 -182q-95 0 -177.5 36t-122 91.5t-56.5 134.5q-11 54 -11 170zM262 1863h208l115 -172l111 172h206l-228 -283h-193zM284 1283 v207h189v-207h-189zM660 1283v207h190v-207h-190z" />
<glyph unicode="&#x1db;" horiz-adv-x="1493" d="M163 625v856h196v-855q0 -193 35.5 -284.5t123 -140.5t213.5 -49q216 0 308 97.5t92 376.5v855h196v-856q0 -223 -50.5 -354.5t-182 -213.5t-346.5 -82q-208 0 -340 71.5t-188.5 207.5t-56.5 371zM497 1511v148h137v-148h-137zM502 1862h229l136 -179h-131zM882 1511v148 h137v-148h-137z" />
<glyph unicode="&#x1dc;" horiz-adv-x="1150" d="M132 408v665h182v-595q0 -143 11 -192q17 -72 72.5 -113t137.5 -41t154 42t101.5 114.5t29.5 209.5v575h182v-1073h-163v158q-125 -182 -340 -182q-95 0 -177.5 36t-122 91.5t-56.5 134.5q-11 54 -11 170zM284 1283v207h189v-207h-189zM297 1863h243l137 -283h-147z M660 1283v207h190v-207h-190z" />
<glyph unicode="&#x1fa;" horiz-adv-x="1379" d="M-3 0l569 1481h211l606 -1481h-224l-172 448h-619l-163 -448h-208zM424 608h502l-154 410q-71 187 -105 307q-29 -142 -80 -283zM486 1617q0 74 54 127.5t128 53.5t127.5 -54t53.5 -131q0 -78 -53.5 -131.5t-126.5 -53.5q-76 0 -129.5 54t-53.5 135zM563 1616 q0 -47 31.5 -79.5t75.5 -32.5q43 0 75 32.5t32 77.5t-31.5 77.5t-75.5 32.5t-75.5 -32t-31.5 -76zM567 1798l134 283h238l-222 -283h-150z" />
<glyph unicode="&#x1fb;" horiz-adv-x="1150" d="M75 283q0 79 35.5 144t94 104.5t130.5 59.5q54 14 162 27q220 26 324 63q1 37 1 47q0 111 -51 157q-70 61 -207 61q-129 0 -190 -45t-90 -159l-178 25q24 114 79.5 184t160.5 108t244 38q137 0 223 -32.5t126.5 -81.5t56.5 -123q9 -47 9 -168v-243q0 -253 11.5 -320 t46.5 -129h-190q-29 57 -37 132q-101 -86 -194.5 -121t-200.5 -35q-176 0 -271 86t-95 221zM269 288q0 -73 55 -121.5t161 -48.5q105 0 186.5 46t120.5 126q29 61 29 182v66q-99 -40 -297 -68q-112 -17 -158.5 -37t-71.5 -59t-25 -86zM387 1351q0 74 54 127.5t128 53.5 t127.5 -54t53.5 -131t-53.5 -130.5t-126.5 -53.5q-76 0 -129.5 54t-53.5 134zM464 1350q0 -47 31.5 -79.5t75.5 -32.5q43 0 75 32.5t32 77.5q0 46 -31.5 78t-75.5 32t-75.5 -31.5t-31.5 -76.5zM498 1660l134 283h239l-223 -283h-150z" />
<glyph unicode="&#x1fc;" horiz-adv-x="2068" d="M1 0l712 1481h1215v-175h-744v-456h692v-173h-692v-502h771v-175h-968v427h-572l-202 -427h-212zM498 601h489v705h-147zM890 1572l135 283h238l-222 -283h-151z" />
<glyph unicode="&#x1fd;" horiz-adv-x="1839" d="M69 283q0 87 50 163t139 115.5t285 64.5q152 20 255 50q1 25 1 41q0 127 -53 178t-185 51q-88 0 -149 -21t-89.5 -60t-47.5 -125l-177 22q28 118 81 187t152 108.5t232 39.5q168 0 271 -51q60 -29 100 -94q65 71 147 108t198 37q163 0 270 -79.5t156.5 -209.5t49.5 -257 q0 -19 -2 -61h-774q2 -146 35.5 -211.5t108 -109.5t163.5 -44q104 0 176 59.5t99 167.5l190 -24q-50 -168 -171.5 -260t-300.5 -92q-129 0 -225.5 48.5t-173.5 151.5q-105 -103 -212.5 -151.5t-232.5 -48.5q-173 0 -269.5 89.5t-96.5 217.5zM262 289q0 -72 53.5 -121 t155.5 -49q116 0 202.5 57.5t112.5 143.5q15 53 15 218q-80 -34 -325 -73q-110 -18 -155 -52q-59 -47 -59 -124zM830 1206l135 283h238l-222 -283h-151zM979 639h590q-15 160 -91.5 233.5t-199.5 73.5q-128 0 -209 -80.5t-90 -226.5z" />
<glyph unicode="&#x1fe;" horiz-adv-x="1608" d="M84 25l178 199q-99 151 -132.5 257.5t-33.5 255.5q0 229 91 407t255 270t365 92q135 0 236.5 -36t218.5 -125l170 190l100 -85l-178 -200q87 -129 118 -226q40 -127 40 -285q0 -227 -92 -404.5t-258 -268.5t-353 -91q-139 0 -252 39q-87 30 -203 116l-170 -190zM298 740 q0 -117 22 -208q16 -67 68 -166l753 843q-95 75 -166 102t-167 27q-221 0 -365.5 -150t-144.5 -448zM474 265q77 -64 143 -89q86 -34 186 -34q220 0 363.5 155.5t143.5 436.5q0 210 -86 371zM688 1572l135 283h238l-222 -283h-151z" />
<glyph unicode="&#x1ff;" horiz-adv-x="1263" d="M130 521q0 304 148.5 440t348.5 136q83 0 152.5 -21.5t148.5 -66.5l100 129l97 -70l-108 -140q64 -87 87 -157q31 -101 31 -236q0 -303 -170 -445q-139 -114 -334 -114q-160 0 -284 81l-106 -137l-95 72l110 142q-60 69 -85 138q-41 110 -41 249zM317 536q0 -151 53 -253 l456 593q-92 70 -193 70q-134 0 -225 -103t-91 -307zM448 189q79 -64 178 -64q141 0 232 103t91 309q0 77 -12 135q-8 42 -35 106zM537 1206l135 283h238l-222 -283h-151z" />
<glyph unicode="&#x259;" horiz-adv-x="1150" d="M86 534q0 16 1 49h800q-9 157 -86 254q-87 110 -238 110q-204 0 -283 -220l-188 23q94 347 472 347q247 0 382 -154q129 -146 129 -398q0 -248 -125 -403q-134 -166 -376 -166q-237 0 -368 164q-120 152 -120 394zM278 433q12 -135 68 -203q87 -105 226 -105 q132 0 216 89q80 85 89 219h-599z" />
<glyph unicode="&#x2c6;" horiz-adv-x="688" d="M25 1206l218 283h194l228 -283h-206l-112 172l-114 -172h-208z" />
<glyph unicode="&#x2c7;" horiz-adv-x="688" d="M40 1489h208l115 -172l111 172h206l-228 -283h-193z" />
<glyph unicode="&#x2c9;" horiz-adv-x="688" d="M29 1239v150h631v-150h-631z" />
<glyph unicode="&#x2d8;" horiz-adv-x="688" d="M46 1479h125q14 -69 56 -103t112 -34q82 0 124 33t56 104h124q-15 -127 -92 -194.5t-206 -67.5t-206 67t-93 195z" />
<glyph unicode="&#x2d9;" horiz-adv-x="688" d="M231 1206v226h226v-226h-226z" />
<glyph unicode="&#x2da;" horiz-adv-x="688" d="M164 1351q0 74 54 127.5t127 53.5q75 0 128.5 -54t53.5 -131t-53.5 -130.5t-127.5 -53.5q-75 0 -128.5 54t-53.5 134zM240 1350q0 -47 32 -79.5t75 -32.5q44 0 75.5 32.5t31.5 77.5q0 46 -31 78t-76 32q-43 0 -75 -31.5t-32 -76.5z" />
<glyph unicode="&#x2db;" horiz-adv-x="688" d="M185 -207q0 87 41 231h125q-39 -90 -39 -165q0 -69 41.5 -111.5t104.5 -42.5q77 0 169 47v-121q-52 -27 -114 -44t-107 -17q-100 0 -160.5 60.5t-60.5 162.5z" />
<glyph unicode="&#x2dc;" horiz-adv-x="688" d="M7 1231q-1 105 58 168q57 62 147 62q63 0 171 -54q59 -30 95 -30q32 0 49 17.5t24 69.5h132q-3 -115 -58 -172.5t-140 -57.5q-64 0 -168 57q-68 36 -99 36q-34 0 -55 -24q-23 -24 -22 -72h-134z" />
<glyph unicode="&#x2dd;" horiz-adv-x="688" d="M59 1206l122 283h236l-213 -283h-145zM409 1206l128 283h234l-209 -283h-153z" />
<glyph unicode="&#x300;" horiz-adv-x="0" d="M-539 1845h243l136 -283h-146z" />
<glyph unicode="&#x301;" horiz-adv-x="0" d="M-384 1562l137 283h243l-233 -283h-147z" />
<glyph unicode="&#x303;" horiz-adv-x="0" d="M-918 1562q-1 103 56 167t149 64q63 0 171 -55q59 -30 95 -30q61 0 73 88h132q-6 -230 -198 -230q-64 0 -168 56q-68 36 -99 36q-79 0 -77 -96h-134z" />
<glyph unicode="&#x309;" horiz-adv-x="0" d="M-476 1846q40 8 146 7q124 -1 203 -40q87 -42 89 -110q4 -102 -184 -125v-51h-113v113q57 6 73 11q54 13 55 42q1 23 -28 39q-43 23 -135 23q-31 0 -95 -4z" />
<glyph unicode="&#x323;" horiz-adv-x="0" d="M-790 -121h208v-207h-208v207z" />
<glyph unicode="&#x384;" horiz-adv-x="688" d="M224 1206l135 283h238l-222 -283h-151z" />
<glyph unicode="&#x385;" horiz-adv-x="688" d="M-22 1242v194h175v-194h-175zM218 1242l132 280h188l-202 -280h-118zM537 1242v194h175v-194h-175z" />
<glyph unicode="&#x386;" horiz-adv-x="1380" d="M-1 0l569 1481h211l606 -1481h-223l-173 448h-619l-163 -448h-208zM55 1198l134 283h238l-222 -283h-150zM426 608h502l-154 410q-74 196 -105 307q-29 -142 -80 -283z" />
<glyph unicode="&#x387;" horiz-adv-x="574" d="M187 866v207h207v-207h-207z" />
<glyph unicode="&#x388;" horiz-adv-x="1622" d="M-90 1198l134 283h239l-222 -283h-151zM405 0v1481h1071v-175h-875v-454h819v-173h-819v-504h909v-175h-1105z" />
<glyph unicode="&#x389;" horiz-adv-x="1733" d="M-89 1198l134 283h239l-222 -283h-151zM364 0v1481h196v-608h769v608h196v-1481h-196v698h-769v-698h-196z" />
<glyph unicode="&#x38a;" horiz-adv-x="793" d="M-89 1198l134 283h239l-222 -283h-151zM364 0v1481h196v-1481h-196z" />
<glyph unicode="&#x38c;" horiz-adv-x="1601" d="M-90 1198l134 283h239l-222 -283h-151zM89 721q0 370 199 578t510 208q312 0 509.5 -211.5t197.5 -557.5q0 -343 -199 -553t-509 -210q-223 0 -391.5 111.5t-242.5 286.5t-74 348zM291 718q0 -253 137.5 -414.5t367.5 -161.5q226 0 366.5 159.5t140.5 437.5 q0 283 -141.5 441t-362.5 158q-217 0 -362.5 -148.5t-145.5 -471.5z" />
<glyph unicode="&#x38e;" horiz-adv-x="1769" d="M-90 1198l134 283h239l-222 -283h-151zM384 1481h238l292 -447q86 -132 151 -250q66 116 161 261l287 436h228l-591 -854v-627h-196v627z" />
<glyph unicode="&#x38f;" horiz-adv-x="1556" d="M-90 1198l134 283h239l-222 -283h-151zM108 0v175h323q-307 256 -307 626q0 201 81 360.5t228.5 252t354.5 92.5q205 0 342 -85t225 -243.5t88 -376.5q0 -370 -307 -626h323v-175h-575v164q359 167 359 607q0 247 -126.5 407t-329.5 160q-209 0 -334.5 -161t-125.5 -396 q0 -446 358 -617v-164h-577z" />
<glyph unicode="&#x390;" horiz-adv-x="459" d="M-137 1242v194h174v-194h-174zM103 1242l132 280h188l-202 -280h-118zM138 0v1073h182v-1073h-182zM422 1242v194h175v-194h-175z" />
<glyph unicode="&#x391;" horiz-adv-x="1379" d="M-3 0l569 1481h211l606 -1481h-224l-172 448h-619l-163 -448h-208zM424 608h502l-154 410q-71 187 -105 307q-29 -142 -80 -283z" />
<glyph unicode="&#x392;" horiz-adv-x="1379" d="M152 0v1481h555q170 0 272.5 -45t160.5 -138.5t58 -195.5q0 -95 -51.5 -179t-155.5 -135q134 -40 206.5 -134.5t72.5 -224.5q0 -104 -44 -193.5t-109 -138t-162.5 -73t-238.5 -24.5h-564zM347 175h369q95 0 133 7q68 12 113.5 40t75 82.5t29.5 124.5q0 83 -42.5 144 t-118 86t-216.5 25h-343v-509zM347 858h321q130 0 186 18q75 22 113 73.5t38 129.5q0 73 -35.5 129.5t-101 77t-225.5 20.5h-296v-448z" />
<glyph unicode="&#x393;" horiz-adv-x="1139" d="M166 0v1481h925v-175h-729v-1306h-196z" />
<glyph unicode="&#x394;" horiz-adv-x="1381" d="M-2 0l569 1481h211l606 -1481h-1386zM270 175h823l-320 843q-72 190 -105 307q-28 -137 -80 -283z" />
<glyph unicode="&#x395;" horiz-adv-x="1379" d="M164 0v1481h1070v-175h-874v-454h819v-173h-819v-504h909v-175h-1105z" />
<glyph unicode="&#x396;" horiz-adv-x="1263" d="M41 0v182l759 948q81 101 153 176h-826v175h1061v-175l-831 -1027l-90 -104h945v-175h-1171z" />
<glyph unicode="&#x397;" horiz-adv-x="1493" d="M166 0v1481h196v-608h769v608h196v-1481h-196v698h-769v-698h-196z" />
<glyph unicode="&#x398;" horiz-adv-x="1608" d="M97 721q0 370 199 578t510 208q312 0 509.5 -211.5t197.5 -557.5q0 -343 -199 -553t-509 -210q-223 0 -391.5 111.5t-242.5 286.5t-74 348zM299 718q0 -253 137.5 -414.5t367.5 -161.5q226 0 366.5 159.5t140.5 437.5q0 283 -141.5 441t-362.5 158q-217 0 -362.5 -148.5 t-145.5 -471.5zM512 653v174h586v-174h-586z" />
<glyph unicode="&#x399;" horiz-adv-x="574" d="M193 0v1481h196v-1481h-196z" />
<glyph unicode="&#x39a;" horiz-adv-x="1379" d="M152 0v1481h195v-735l736 735h265l-621 -600l649 -881h-259l-527 749l-243 -236v-513h-195z" />
<glyph unicode="&#x39b;" horiz-adv-x="1381" d="M11 0l579 1481h202l574 -1481h-214l-384 1075q-51 141 -78 243q-34 -122 -79 -243l-400 -1075h-200z" />
<glyph unicode="&#x39c;" horiz-adv-x="1723" d="M154 0v1481h294l351 -1049q48 -146 71 -219q25 81 78 237l355 1031h264v-1481h-189v1239l-431 -1239h-176l-429 1260v-1260h-188z" />
<glyph unicode="&#x39d;" horiz-adv-x="1493" d="M158 0v1481h201l777 -1163v1163h188v-1481h-201l-778 1164v-1164h-187z" />
<glyph unicode="&#x39e;" horiz-adv-x="1344" d="M110 0v175h1124v-175h-1124zM137 1306v175h1070v-175h-1070zM232 653v174h880v-174h-880z" />
<glyph unicode="&#x39f;" horiz-adv-x="1608" d="M100 721q0 369 198 577.5t511 208.5q205 0 369.5 -98t251 -273t86.5 -398q0 -225 -91 -402.5t-257.5 -269t-359.5 -91.5q-209 0 -373.5 101t-249.5 275.5t-85 369.5zM302 718q0 -268 144 -422t361 -154q221 0 364 155.5t143 441.5q0 181 -61 316t-179 209t-264 74 q-208 0 -358 -143t-150 -477z" />
<glyph unicode="&#x3a0;" horiz-adv-x="1493" d="M166 0v1481h1161v-1481h-196v1306h-769v-1306h-196z" />
<glyph unicode="&#x3a1;" horiz-adv-x="1379" d="M160 0v1481h558q148 0 225 -14q109 -19 183 -70t119 -142.5t45 -202.5q0 -188 -120.5 -319t-434.5 -131h-379v-602h-196zM356 777h382q190 0 270 70.5t80 198.5q0 93 -47 159.5t-124 87.5q-49 13 -183 13h-378v-529z" />
<glyph unicode="&#x3a3;" horiz-adv-x="1278" d="M149 0v204l484 565l-484 515v197h1007v-175h-794l505 -537l-505 -594h836v-175h-1049z" />
<glyph unicode="&#x3a4;" horiz-adv-x="1263" d="M48 1306v175h1174v-175h-490v-1306h-196v1306h-488z" />
<glyph unicode="&#x3a5;" horiz-adv-x="1379" d="M6 1481h238l292 -447q81 -125 151 -250q66 116 161 261l287 436h229l-591 -854v-627h-196v627z" />
<glyph unicode="&#x3a6;" horiz-adv-x="1650" d="M86 747q0 165 75.5 298.5t214 210t351.5 86.5v183h196v-183q311 -19 476 -181.5t165 -404.5q0 -270 -178.5 -426.5t-462.5 -166.5v-217h-196v217q-292 11 -466.5 172t-174.5 412zM290 748q0 -204 125 -310t312 -109v844q-208 -6 -322.5 -114.5t-114.5 -310.5zM923 329 q207 6 324.5 116.5t117.5 305.5q0 186 -112.5 304t-329.5 118v-844z" />
<glyph unicode="&#x3a7;" horiz-adv-x="1379" d="M9 0l573 772l-505 709h233l269 -380q84 -118 119 -182q49 81 117 169l298 393h213l-520 -698l561 -783h-243l-373 528q-31 46 -64 99q-50 -81 -71 -111l-372 -516h-235z" />
<glyph unicode="&#x3a8;" horiz-adv-x="1728" d="M128 1045v436h196v-399q0 -244 108 -341.5t334 -115.5v856h196v-856q212 13 326.5 117t114.5 364v375h197v-418q0 -595 -638 -605v-458h-196v458q-334 6 -486 162t-152 425z" />
<glyph unicode="&#x3a9;" horiz-adv-x="1546" d="M98 0v175h323q-307 256 -307 626q0 201 81 360.5t228.5 252t354.5 92.5q205 0 341.5 -85t225 -243.5t88.5 -376.5q0 -370 -307 -626h323v-175h-575v164q359 167 359 607q0 247 -126.5 407t-329.5 160q-209 0 -334.5 -161t-125.5 -396q0 -446 358 -617v-164h-577z" />
<glyph unicode="&#x3aa;" horiz-adv-x="574" d="M5 1572v207h189v-207h-189zM193 0v1481h196v-1481h-196zM381 1572v207h190v-207h-190z" />
<glyph unicode="&#x3ab;" horiz-adv-x="1379" d="M6 1481h238l292 -447q81 -125 151 -250q66 116 161 261l287 436h229l-591 -854v-627h-196v627zM401 1572v207h189v-207h-189zM777 1572v207h190v-207h-190z" />
<glyph unicode="&#x3ac;" horiz-adv-x="1195" d="M73 538q0 267 123.5 413t327.5 146q126 0 206 -51t149 -155q7 35 53 182h186q-71 -223 -130 -537q70 -390 130 -536h-181q-43 101 -65 196q-84 -220 -351 -220q-202 0 -325 151.5t-123 410.5zM273 538q0 -193 71.5 -303t199.5 -110q126 0 209.5 108.5t83.5 312.5 q0 198 -78 299t-205 101q-130 0 -205.5 -105t-75.5 -303zM470 1206l135 283h238l-222 -283h-151z" />
<glyph unicode="&#x3ad;" horiz-adv-x="922" d="M99 295q0 183 178 259q-149 84 -149 232q0 120 88 215.5t270 95.5q208 0 351 -146l-130 -105q-124 94 -232 94q-89 0 -130 -47.5t-41 -101.5q0 -71 60.5 -118t177.5 -47q16 0 51 1v-152q-32 1 -49 1q-144 0 -200 -55.5t-56 -125.5q0 -72 56.5 -121t134.5 -49 q142 0 266 133l131 -111q-162 -171 -402 -171q-189 0 -282 96t-93 223zM369 1206l135 283h238l-222 -283h-151z" />
<glyph unicode="&#x3ae;" horiz-adv-x="1150" d="M140 0v1073h164v-153q118 177 341 177q132 0 220.5 -56.5t117.5 -140t29 -240.5v-1071h-182v1063q0 150 -52.5 218.5t-172.5 68.5q-118 0 -200.5 -75.5t-82.5 -277.5v-586h-182zM470 1206l135 283h238l-222 -283h-151z" />
<glyph unicode="&#x3af;" horiz-adv-x="459" d="M101 1206l135 283h238l-222 -283h-151zM138 0v1073h182v-1073h-182z" />
<glyph unicode="&#x3b0;" horiz-adv-x="1131" d="M137 437v636h182v-636q0 -164 74 -238t173 -74q81 0 142 46.5t84 107t23 172.5v622h181v-629q0 -239 -119 -353.5t-314 -114.5q-151 0 -249.5 67t-137.5 155t-39 239zM200 1242v194h175v-194h-175zM440 1242l132 280h188l-202 -280h-118zM759 1242v194h175v-194h-175z " />
<glyph unicode="&#x3b1;" horiz-adv-x="1195" d="M73 538q0 267 123.5 413t327.5 146q126 0 206 -51t149 -155q7 35 53 182h186q-71 -223 -130 -537q70 -390 130 -536h-181q-43 101 -65 196q-84 -220 -351 -220q-202 0 -325 151.5t-123 410.5zM273 538q0 -193 71.5 -303t199.5 -110q126 0 209.5 108.5t83.5 312.5 q0 198 -78 299t-205 101q-130 0 -205.5 -105t-75.5 -303z" />
<glyph unicode="&#x3b2;" horiz-adv-x="1189" d="M141 -411v1427q0 171 46 267.5t158.5 159.5t249.5 63q203 0 307.5 -116.5t104.5 -255.5q0 -135 -84.5 -218t-193.5 -102q176 -17 271.5 -126t95.5 -269q0 -172 -112.5 -307.5t-325.5 -135.5q-219 0 -336 160v-547h-181zM322 578q0 -174 24.5 -256t104 -147.5t183.5 -65.5 q127 0 200 86.5t73 213.5q0 105 -54 188.5t-133.5 113t-210.5 29.5h-26v133q186 0 270.5 64.5t84.5 186.5q0 99 -72 165.5t-180 66.5q-94 0 -163 -49.5t-85 -110t-16 -211.5v-407z" />
<glyph unicode="&#x3b3;" horiz-adv-x="1034" d="M25 1073h191l300 -846l307 846h186l-401 -1073v-411h-185v411z" />
<glyph unicode="&#x3b4;" horiz-adv-x="1151" d="M73 521q0 259 132 394.5t316 142.5q-94 66 -345 291v132h809v-148h-566q101 -103 316 -251q192 -134 268 -248t76 -309q0 -261 -141 -405t-367 -144q-248 0 -373 161.5t-125 383.5zM259 519q0 -172 90 -283t231 -111q123 0 217.5 95t94.5 300q0 190 -90 294t-226 104 q-151 0 -234 -117t-83 -282z" />
<glyph unicode="&#x3b5;" horiz-adv-x="922" d="M99 295q0 183 178 259q-149 84 -149 232q0 120 88 215.5t270 95.5q208 0 351 -146l-130 -105q-124 94 -232 94q-89 0 -130 -47.5t-41 -101.5q0 -71 60.5 -118t177.5 -47q16 0 51 1v-152q-32 1 -49 1q-144 0 -200 -55.5t-56 -125.5q0 -72 56.5 -121t134.5 -49 q142 0 266 133l131 -111q-162 -171 -402 -171q-189 0 -282 96t-93 223z" />
<glyph unicode="&#x3b6;" horiz-adv-x="912" d="M73 425q0 240 172.5 494t410.5 414h-420v148h659v-124q-272 -167 -456 -438.5t-184 -501.5q0 -121 54.5 -179.5t176.5 -68.5q157 -14 223.5 -35t116 -85t49.5 -154q0 -98 -61 -181t-140 -116t-193 -33l49 167q170 20 170 143q0 41 -27.5 72.5t-66.5 40.5t-149 13 q-153 4 -230.5 61t-115.5 151t-38 212z" />
<glyph unicode="&#x3b7;" horiz-adv-x="1150" d="M140 0v1073h164v-153q118 177 341 177q132 0 220.5 -56.5t117.5 -140t29 -240.5v-1071h-182v1063q0 150 -52.5 218.5t-172.5 68.5q-118 0 -200.5 -75.5t-82.5 -277.5v-586h-182z" />
<glyph unicode="&#x3b8;" horiz-adv-x="1150" d="M93 740q0 766 483 766q482 0 482 -766q0 -764 -482 -764q-483 0 -483 764zM281 668q11 -543 295 -543q285 0 295 543h-590zM281 814h590q-10 316 -91 429t-206 113q-282 0 -293 -542z" />
<glyph unicode="&#x3b9;" horiz-adv-x="459" d="M138 0v1073h182v-1073h-182z" />
<glyph unicode="&#x3ba;" horiz-adv-x="1034" d="M135 0v1073h181v-422l435 422h241l-480 -446l521 -627h-232l-418 505l-67 -62v-443h-181z" />
<glyph unicode="&#x3bb;" horiz-adv-x="1034" d="M24 0l398 1052l-159 429h191l554 -1481h-192l-300 802l-300 -802h-192z" />
<glyph unicode="&#x3bc;" horiz-adv-x="1191" d="M162 -411v1484h179v-455q0 -247 26.5 -320.5t85.5 -116t136 -42.5q81 0 144.5 44.5t89.5 115t26 316.5v458h179v-1073h-162v127q-53 -81 -104 -111q-71 -41 -165 -41q-84 0 -149 33q-48 25 -107 100v-519h-179z" />
<glyph unicode="&#x3bd;" horiz-adv-x="1034" d="M26 1073h192l230 -643q38 -104 69 -216q24 85 68 204l238 655h187l-406 -1073h-170z" />
<glyph unicode="&#x3be;" horiz-adv-x="926" d="M93 424q0 155 92.5 278t235.5 185q-143 18 -208.5 108.5t-65.5 184.5q0 131 116 228.5t337 97.5h180v-151h-149q-165 0 -239.5 -49t-74.5 -139q0 -174 302 -174h149v-151q-134 0 -233 -39t-178 -141t-79 -232q0 -97 57 -172.5t245 -96.5q121 -15 177.5 -45.5t94 -93 t37.5 -135.5q0 -133 -110 -226.5t-297 -95.5l46 168q100 7 142 51.5t42 91.5q0 103 -173 122q-446 48 -446 426z" />
<glyph unicode="&#x3bf;" horiz-adv-x="1150" d="M70 536q0 298 165 442q139 119 338 119q221 0 361.5 -145t140.5 -401q0 -207 -62 -325.5t-181 -184t-259 -65.5q-225 0 -364 144.5t-139 415.5zM257 536q0 -206 89.5 -308.5t226.5 -102.5q135 0 225 103t90 314q0 199 -90.5 301.5t-224.5 102.5q-137 0 -226.5 -102 t-89.5 -308z" />
<glyph unicode="&#x3c0;" horiz-adv-x="1427" d="M45 925v148h1338v-148h-245v-925h-182v925h-446v-925h-182v925h-283z" />
<glyph unicode="&#x3c1;" horiz-adv-x="1176" d="M132 -411v910q0 305 120.5 451.5t349.5 146.5q228 0 365 -155.5t137 -404.5t-131 -405t-344 -156q-199 0 -315 126v-513h-182zM316 522q0 -199 79 -298t214 -99q136 0 222 102.5t86 299.5q0 224 -92 321.5t-217 97.5q-132 0 -212 -101.5t-80 -322.5z" />
<glyph unicode="&#x3c2;" horiz-adv-x="996" d="M87 494q0 243 174 423t469 180q124 0 246 -34l-43 -152q-113 35 -226 35q-203 0 -323 -125.5t-120 -295.5q0 -117 66 -207.5t262 -141.5q140 -38 202.5 -70.5t98 -90.5t35.5 -134q0 -139 -112 -227.5t-280 -88.5q-67 0 -153 14l44 166q59 -12 102 -12q97 0 152.5 42 t55.5 102q0 54 -39.5 83t-167.5 56q-224 48 -333.5 175t-109.5 303z" />
<glyph unicode="&#x3c3;" horiz-adv-x="1276" d="M69 536q0 286 147 423.5t354 137.5q75 0 171 -24h490v-148h-292q135 -125 135 -390q0 -288 -147 -423.5t-357 -135.5q-219 0 -360 141.5t-141 418.5zM256 535q0 -204 87 -307t227 -103q146 0 232.5 107.5t86.5 303.5q0 179 -79.5 294.5t-242.5 115.5q-133 0 -222 -103 t-89 -308z" />
<glyph unicode="&#x3c4;" horiz-adv-x="817" d="M46 925v148h724v-148h-259v-925h-182v925h-283z" />
<glyph unicode="&#x3c5;" horiz-adv-x="1131" d="M137 437v636h182v-636q0 -164 74 -238t173 -74q81 0 142 46.5t84 107t23 172.5v622h181v-629q0 -239 -119 -353.5t-314 -114.5q-151 0 -249.5 67t-137.5 155t-39 239z" />
<glyph unicode="&#x3c6;" horiz-adv-x="1341" d="M73 563q0 239 130.5 387t300.5 144l-35 -158q-209 -69 -209 -365q0 -157 82 -279.5t246 -158.5v667q0 107 15 165t69 95t147 37q145 0 235 -58.5t153 -185t63 -271.5q0 -121 -49.5 -243t-161 -224t-291.5 -140v-386h-180v386q-188 0 -351.5 164.5t-163.5 423.5zM768 141 q128 24 219.5 144t91.5 315q0 181 -67 263.5t-141 82.5q-54 0 -78.5 -36.5t-24.5 -162.5v-606z" />
<glyph unicode="&#x3c7;" horiz-adv-x="1085" d="M17 -411l413 746l-382 738h198l295 -594l305 594h200l-394 -732l415 -752h-207l-319 619l-321 -619h-203z" />
<glyph unicode="&#x3c8;" horiz-adv-x="1474" d="M123 549v524h181v-530q0 -148 24 -226t102.5 -130t215.5 -59v945h182v-945q133 7 210.5 56.5t104.5 127t27 231.5v530h180v-524q0 -210 -38.5 -312t-157 -178t-326.5 -83v-387h-182v387q-134 4 -235 38t-171 109.5t-93.5 158.5t-23.5 267z" />
<glyph unicode="&#x3c9;" horiz-adv-x="1614" d="M88 522q0 267 159 551h176q-150 -333 -150 -562q0 -177 64.5 -285t164.5 -108q65 0 121.5 50.5t75 121.5t18.5 198v314h181v-314q0 -124 18.5 -197t75.5 -123t122 -50q99 0 163.5 107.5t64.5 285.5q0 229 -149 562h175q159 -284 159 -551t-110.5 -406.5t-282.5 -139.5 q-228 0 -326 241q-99 -241 -327 -241q-181 0 -287 146.5t-106 399.5z" />
<glyph unicode="&#x3ca;" horiz-adv-x="459" d="M-46 1283v207h189v-207h-189zM138 0v1073h182v-1073h-182zM330 1283v207h190v-207h-190z" />
<glyph unicode="&#x3cb;" horiz-adv-x="1131" d="M137 437v636h182v-636q0 -164 74 -238t173 -74q81 0 142 46.5t84 107t23 172.5v622h181v-629q0 -239 -119 -353.5t-314 -114.5q-151 0 -249.5 67t-137.5 155t-39 239zM304 1283v207h189v-207h-189zM680 1283v207h190v-207h-190z" />
<glyph unicode="&#x3cc;" horiz-adv-x="1150" d="M70 536q0 298 165 442q139 119 338 119q221 0 361.5 -145t140.5 -401q0 -207 -62 -325.5t-181 -184t-259 -65.5q-225 0 -364 144.5t-139 415.5zM257 536q0 -206 89.5 -308.5t226.5 -102.5q135 0 225 103t90 314q0 199 -90.5 301.5t-224.5 102.5q-137 0 -226.5 -102 t-89.5 -308zM470 1206l135 283h238l-222 -283h-151z" />
<glyph unicode="&#x3cd;" horiz-adv-x="1131" d="M137 437v636h182v-636q0 -164 74 -238t173 -74q81 0 142 46.5t84 107t23 172.5v622h181v-629q0 -239 -119 -353.5t-314 -114.5q-151 0 -249.5 67t-137.5 155t-39 239zM446 1206l135 283h238l-222 -283h-151z" />
</font>
</defs>
</svg>
